<?xml version="1.0" standalone="no"?>
<!DOCTYPE svg PUBLIC "-//W3C//DTD SVG 1.1//EN" "http://www.w3.org/Graphics/SVG/1.1/DTD/svg11.dtd">
<svg xmlns="http://www.w3.org/2000/svg">
<metadata>Generated by Fontastic.me</metadata>
<defs>
<font id="avendor-icons" horiz-adv-x="512">
<font-face font-family="avendor-icons" units-per-em="512" ascent="480" descent="-32"/>
<missing-glyph horiz-adv-x="512" />

<glyph unicode="&#109;" d="M503 112l-219 383c-6 10-17 16-28 16-11 0-22-6-28-16l-219-383c-6-10-6-22 0-32 6-10 16-16 28-16l438 0c12 0 22 6 28 16 6 10 6 22 0 32z m-215 16l-64 0 0 64 64 0z m0 96l-64 0 0 128 64 0z"/>
<glyph unicode="&#110;" d="M112 480c-53 0-96-43-96-96 0-53 43-96 96-96 53 0 96 43 96 96 0 53-43 96-96 96z m240-272l80 80-224 0 0-224 80 80 144-144 64 64z"/>
<glyph unicode="&#111;" d="M208 224l64 64 144-144 80 80 0-224-224 0 80 80z m-96 64c-53 0-96 43-96 96 0 53 43 96 96 96 53 0 96-43 96-96 0-53-43-96-96-96z"/>
<glyph unicode="&#112;" d="M288 416l-64-64-128 128-64-64 128-128-64-64 32-32 192 192z m64-192l64 64-32 32-192-192 32-32 64 64 128-128 64 64z"/>
<glyph unicode="&#113;" d="M320 288l0 128-128 0 0-128-96 0 160-192 160 192z"/>
<glyph unicode="&#114;" d="M288 320l0 96-192-160 192-160 0 96 128 0 0 128z"/>
<glyph unicode="&#115;" d="M416 256l-192 160 0-96-128 0 0-128 128 0 0-96z"/>
<glyph unicode="&#116;" d="M288 288l0 64-64 0 0-64-64 0 96-128 96 128z"/>
<glyph unicode="&#117;" d="M288 288l0 64-128-96 128-96 0 64 64 0 0 64z"/>
<glyph unicode="&#118;" d="M352 256l-128 96 0-64-64 0 0-64 64 0 0-64z"/>
<glyph unicode="&#119;" d="M256 352l-96-128 64 0 0-64 64 0 0 64 64 0z"/>
<glyph unicode="&#120;" d="M256 416l-160-192 96 0 0-128 128 0 0 128 96 0z"/>
<glyph unicode="&#121;" d="M448 384c-15 0-96 0-96 0l0 64c0 35-79 64-176 64-97 0-176-29-176-64l0-384c0-36 79-64 176-64 97 0 176 28 176 64l0 64c0 0 80 0 96 0 16 0 32 15 32 32 0 17 0 175 0 192 0 17-14 32-32 32z m-352-288l-32 0 0 256 32 0z m96-32l-32 0 0 256 32 0z m96 32l-32 0 0 256 32 0z m-112 320c-62 0-112 14-112 32 0 17 50 32 112 32 62 0 112-15 112-32 0-18-50-32-112-32z m240-224l-64 0 0 128 64 0z"/>
<glyph unicode="&#122;" d="M256 384l-160-160 64-64 96 96 96-96 64 64z"/>
<glyph unicode="&#65;" d="M208 416l-64-64 96-96-96-96 64-64 160 160z"/>
<glyph unicode="&#66;" d="M368 352l-64 64-160-160 160-160 64 64-96 96z"/>
<glyph unicode="&#67;" d="M352 352l-96-96-96 96-64-64 160-160 160 160z"/>
<glyph unicode="&#68;" d="M445 254l-25 25c-3 3-9 3-12 0l-52-53-60-60-47 47c-3 3-8 3-12 0l-24-25c-4-4-4-9 0-12l52-52 9-9 16-16c3-4 8-4 12 0l24 25 119 118c3 3 3 9 0 12z m-266-32l25 24c21 22 58 22 79 0l13-12 57 54 0 160-288 0 0-352 160 0-46 46c-22 22-22 58 0 80z m-18 194l160 0 0-32-160 0z m0-64l160 0 0-32-160 0z m-32-96l-32 0 0 32 32 0z m0 64l-32 0 0 32 32 0z m0 64l-32 0 0 32 32 0z m32-96l32 0 0-32-32 0z"/>
<glyph unicode="&#69;" d="M352 256l-32 0 0-64 32 0z m-64 0l-32 0 0-64 32 0z m64 96l-32 0 0-64 32 0z m64-96l-32 0 0-64 32 0z m-128-96l-32 0 0-64 32 0z m96 352l-32 0 0-64 32 0z m-256 0l-32 0 0-64 32 0z m288-160l-32 0 0-64 32 0z m-128 0l-32 0 0-64 32 0z m-128-192l-32 0 0-64 32 0z m-64 96l-32 0 0-64 32 0z m64 0l-32 0 0-64 32 0z m256 224l0-64-96 0 0 64-160 0 0-64-96 0 0 64-64 0 0-448 480 0 0 448z m32-416l-416 0 0 320 416 0z m-352 96l-32 0 0-64 32 0z m128 192l-32 0 0-64 32 0z m0-192l-32 0 0-64 32 0z m-64 192l-32 0 0-64 32 0z m64-96l-32 0 0-64 32 0z m128-96l-32 0 0-64 32 0z"/>
<glyph unicode="&#70;" d="M194 434c-26-29-19-74-19-74 0 0 27-32 80-32 53 0 80 32 80 32 0 0 7 45-19 73 17 9 26 22 22 31-4 10-24 11-44 2-7-3-14-7-18-12-7 1-13 2-21 2-7 0-13-1-19-2-5 5-11 9-18 12-20 9-40 8-44-2-4-9 5-21 20-30z m201-207c-4 1-8 1-12 2 0 1 0 2 0 3 0 17-2 33-6 48 8-1 19 1 29 6 20 9 33 24 28 34-4 10-24 11-44 2-9-4-17-10-22-15-4 9-8 18-13 25-15-12-44-31-84-35l0-161c0 0 0-16-16-16-16 0-16 16-16 16l0 161c-40 4-68 23-83 35-5-7-9-16-13-24-5 5-13 10-21 14-20 9-40 8-44-2-5-10 8-25 28-34 10-4 19-6 27-6-3-15-6-31-6-48 0-1 0-2 0-3-3-1-6-1-10-2-26-5-46-19-44-30 1-11 23-16 49-10 4 1 7 1 10 2 5-20 12-39 22-55-6-3-12-8-18-14-16-16-22-35-14-43 8-8 27-1 43 15 5 4 9 9 11 14 22-21 49-34 79-34 30 0 58 13 80 35 3-5 7-10 12-15 16-16 35-23 43-15 8 8 2 27-14 43-7 7-13 11-20 14 10 17 18 36 22 56 4-1 8-2 12-3 26-6 48-1 49 10 2 11-18 25-44 30z"/>
<glyph unicode="&#71;" d="M192 416l32 0 0-32-32 0z m-64 0l32 0 0-32-32 0z m-64 0l32 0 0-32-32 0z m384-320l-384 0 0 256 384 0z m0 288l-192 0 0 32 192 0z m32 32c0 18-14 32-32 32l-384 0c-18 0-32-14-32-32l0-320c0-18 14-32 32-32l384 0c18 0 32 14 32 32z"/>
<glyph unicode="&#72;" d="M256 416c71 0 128-58 128-128 0-35-14-66-36-89l-8-47c46 28 76 78 76 136 0 88-71 160-160 160-88 0-160-72-160-160 0-58 31-108 76-136l-8 47c-22 23-36 54-36 89 0 71 57 128 128 128z m-32-160c-18 0-32-15-32-32l0-64c0-18 15-32 32-32l0-128 64 0 0 128c17 0 32 14 32 32l0 64c0 17-14 32-32 32-18 0-32 0-32 0 0 0-14 0-32 0z m96 64c0 35-28 64-64 64-35 0-64-29-64-64 0-36 29-64 64-64 36 0 64 28 64 64z m-64 192c-123 0-224-101-224-224 0-99 64-182 153-212l-6 36c-68 30-115 97-115 176 0 106 86 192 192 192 106 0 192-86 192-192 0-79-47-146-114-176l-6-36c88 30 152 113 152 212 0 123-100 224-224 224z"/>
<glyph unicode="&#73;" d="M448 416l-128 0 0 33c0 17-14 31-31 31l-66 0c-17 0-31-14-31-31l0-33-128 0c-18 0-32-14-32-32l0-256c0-18 14-32 32-32l384 0c18 0 32 14 32 32l0 256c0 18-14 32-32 32z m-224 24c0 4 4 8 8 8l48 0c4 0 8-4 8-8l0-24-64 0z m224-184l-160 0 0-32-64 0 0 32-160 0 0 128 32 0 0-96 320 0 0 96 32 0z"/>
<glyph unicode="&#74;" d="M160 448l0-384 96 64 96-64 0 384z m158-98l-36-26 14-42c1-4-1-6-4-3l-36 26-36-26c-3-3-5-1-4 3l14 42-36 26c-3 2-3 4 2 4l44 0 13 42c2 4 4 4 6 0l13-42 44 0c5 0 5-2 2-4z"/>
<glyph unicode="&#75;" d="M384 224l-64 0c-17 0-32-16-32-32l128 0c0 17-16 32-32 32z m-27 208c-84 0-105-16-117-28-12 12-33 28-116 28-84 0-124-23-124-39l0-293c15 8 60 24 107 28 58 4 117-5 117-16 0-8 4-16 16-16 0 0 0 0 0 0 0 0 0 0 1 0 11 0 15 8 15 16 0 11 60 20 117 16 47-4 93-20 107-28l0 293c0 16-40 39-123 39z m-133-286c-15 8-51 14-96 14-44 0-85-6-96-14 0 0 0 206 0 222 0 16 32 29 96 29 64 0 96-13 96-29 0-16 0-222 0-222z m224 0c-11 8-51 14-96 14-44 0-81-6-96-14 0 0 0 206 0 222 0 16 32 29 96 29 64 0 96-13 96-29 0-16 0-222 0-222z m-64 142l-64 0c-17 0-32-16-32-32l128 0c0 17-16 32-32 32z m0 64l-64 0c-17 0-32-16-32-32l128 0c0 17-16 32-32 32z m-224-64l-64 0c-16 0-32-15-32-32l128 0c0 16-15 32-32 32z m0-64l-64 0c-16 0-32-15-32-32l128 0c0 16-15 32-32 32z m0 128l-64 0c-16 0-32-15-32-32l128 0c0 16-15 32-32 32z"/>
<glyph unicode="&#76;" d="M256 416c-88 0-160-72-160-160 0-88 72-160 160-160 88 0 160 72 160 160 0 88-72 160-160 160z m0-64c14 0 27-3 39-8l-127-127c-5 12-8 25-8 39 0 53 43 96 96 96z m0-192c-14 0-27 3-39 9l127 126c5-12 8-25 8-39 0-53-43-96-96-96z"/>
<glyph unicode="&#77;" d="M160 384c18 0 32-14 32-32 0-18-14-32-32-32-18 0-32 14-32 32 0 18 14 32 32 32z m320-256c0-53-43-96-96-96l-224 0 96 96 41 0c11-19 31-32 55-32 35 0 64 29 64 64 0 35-29 64-64 64-24 0-44-13-55-32l-73 0-146-146c-28 17-46 47-46 82l0 256c0 53 43 96 96 96l0-73c-19-11-32-31-32-55 0-35 29-64 64-64 24 0 44 13 55 32l82 0c11-19 31-32 55-32 35 0 64 29 64 64 0 35-29 64-64 64-24 0-44-13-55-32l-81 0c-6 10-14 18-24 23l0 73 192 0c53 0 96-43 96-96z m-160 32c0 18 14 32 32 32 18 0 32-14 32-32 0-18-14-32-32-32-18 0-32 14-32 32z m0 192c0 18 14 32 32 32 18 0 32-14 32-32 0-18-14-32-32-32-18 0-32 14-32 32z"/>
<glyph unicode="&#78;" d="M384 64l-320 0 0 288 320 0 0-96 32 0 0 160c0 17-14 32-32 32l-96 0c0 35-28 64-64 64-35 0-64-29-64-64l-96 0c-17 0-32-15-32-32l0-352c0-18 15-32 32-32l320 0c18 0 32 14 32 32l0 64-32 0z m-256 352c15 0 15 0 32 0 18 0 32 14 32 32 0 17 15 32 32 32 18 0 32-15 32-32 0-18 16-32 32-32 16 0 17 0 32 0 16 0 32-15 32-32l-256 0c0 19 14 32 32 32z m-32-256l64 0 0 32-64 0z m224 64l0 64-128-96 128-96 0 64 160 0 0 64z m-224-128l96 0 0 32-96 0z m160 224l-160 0 0-32 160 0z m-96-64l-64 0 0-32 64 0z"/>
<glyph unicode="&#79;" d="M224 224l128 0 32 32-32 32-64 0 0 96-32 32-32-32z m32 256c-124 0-224-100-224-224 0-124 100-224 224-224 124 0 224 100 224 224 0 124-100 224-224 224z m0-384c-88 0-160 72-160 160 0 88 72 160 160 160 88 0 160-72 160-160 0-88-72-160-160-160z"/>
<glyph unicode="&#80;" d="M256 320l-96-96 64 0 0-160 64 0 0 160 64 0z m160 32c-4 0-9-1-13-1-24 57-81 97-147 97-66 0-123-40-147-97-4 0-9 1-13 1-53 0-96-43-96-96 0-53 43-96 96-96 10 0 20 2 29 5 17-19 41-31 67-35l0 32c-25 6-46 22-56 44-11-9-25-14-40-14-35 0-64 29-64 64 0 35 29 64 64 64 13 0 24-4 34-10 11 60 63 106 126 106 63 0 115-46 125-106 10 6 22 10 35 10 35 0 64-29 64-64 0-35-29-64-64-64-5 0-10 1-15 2-14-21-38-34-65-34-6 0-11 1-16 2l0-32c5-1 11-2 16-2 31 0 58 12 79 32 0 0 0 0 1 0 53 0 96 43 96 96 0 53-43 96-96 96z"/>
<glyph unicode="&#81;" d="M336 416l-48-48 112-112-112-112 48-48 144 160z m-160 0l-144-160 144-160 48 48-112 112 112 112z"/>
<glyph unicode="&#82;" d="M416 352c-4 0-9-1-13-1-24 57-81 97-147 97-66 0-123-40-147-97-4 0-9 1-13 1-53 0-96-43-96-96 0-53 43-96 96-96 10 0 20 2 29 5 17-19 41-31 67-35l0 32c-25 6-46 22-56 44-11-9-25-14-40-14-35 0-64 29-64 64 0 35 29 64 64 64 13 0 24-4 34-10 11 60 63 106 126 106 63 0 115-46 125-106 10 6 22 10 35 10 35 0 64-29 64-64 0-35-29-64-64-64-5 0-10 1-15 2-14-21-38-34-65-34-6 0-11 1-16 2l0-32c5-1 11-2 16-2 31 0 58 12 78 32 1 0 1 0 2 0 53 0 96 43 96 96 0 53-43 96-96 96z m-128-96l-64 0 0-160-64 0 96-96 96 96-64 0z"/>
<glyph unicode="&#83;" d="M64 448l0-384 384 0 0 384z m32-352l0 320 320 0z"/>
<glyph unicode="&#84;" d="M416 448l-320 0c-31 0-64-32-64-64l0-192c0-64 64-64 64-64l32 0 0-128 128 128c0 0 129 0 160 0 31 0 64 34 64 64l0 192c0 31-32 64-64 64z"/>
<glyph unicode="&#85;" d="M160 256c0 32 0 96 0 96 0 0-80 0-96 0-16 0-32-16-32-32 0-16 0-144 0-160 0-16 16-32 32-32 16 0 32 0 32 0l0-96 97 96c0 0 81 0 96 0 15 0 31 16 31 32 0 16 0 32 0 32 0 0-64 0-96 0-32 0-64 32-64 64z m288 192c-16 0-208 0-224 0-16 0-32-16-32-32 0-16 0-144 0-160 0-16 16-32 32-32 16 0 95 0 95 0l97-96 0 96c0 0 16 0 32 0 16 0 32 16 32 32 0 16 0 144 0 160 0 16-16 32-32 32z"/>
<glyph unicode="&#86;" d="M64 160l64 0 0 32-64 0z m96 0l64 0 0 32-64 0z m32 96l-128 0 0-32 128 0z m-64 32l32 0 64 64-32 0z m96-64l96 0 0 32-96 0z m256 192c-16 0-432 0-448 0-16 0-32-16-32-32 0-16 0-240 0-256 0-16 16-32 32-32 16 0 432 0 448 0 16 0 32 16 32 32 0 16 0 240 0 256 0 16-16 32-32 32z m0-128l0-144c0 0 0-16-16-16l-416 0c-16 0-16 16-16 16l0 144 32 0 64 64-96 0 0 16c0 0 0 16 16 16l416 0c16 0 16-16 16-16l0-16-192 0-64-64z"/>
<glyph unicode="&#87;" d="M128 288l0-64 256 0 0 64z"/>
<glyph unicode="&#88;" d="M256 280c-31 0-56-25-56-56 0-31 25-56 56-56 31 0 56 25 56 56 0 4-1 8-2 12 41 48 104 122 138 164 12 14-1 28-16 16-43-35-116-97-163-138-4 1-9 2-13 2z m16 104c0 9-7 16-16 16-9 0-16-7-16-16 0-9 7-16 16-16 9 0 16 7 16 16z m96-128c0-9 7-16 16-16 9 0 16 7 16 16 0 9-7 16-16 16-9 0-16-7-16-16z m-176 128c-9 0-16-7-16-16 0-9 7-16 16-16 9 0 16 7 16 16 0 9-7 16-16 16z m-32-64c0 9-7 16-16 16-9 0-16-7-16-16 0-9 7-16 16-16 9 0 16 7 16 16z m-48-64c0-9 7-16 16-16 9 0 16 7 16 16 0 9-7 16-16 16-9 0-16-7-16-16z m224 112c0 9-7 16-16 16-9 0-16-7-16-16 0-9 7-16 16-16 9 0 16 7 16 16z m108-24l-34-45c4-14 6-28 6-43 0-88-72-160-160-160-88 0-160 72-160 160 0 88 72 160 160 160 33 0 64-10 89-27l40 30c-36 28-80 45-129 45-115 0-208-93-208-208 0-115 93-208 208-208 115 0 208 93 208 208 0 31-7 61-20 88z"/>
<glyph unicode="&#89;" d="M384 416l-192-192-64 64-64-64 128-128 256 256z"/>
<glyph unicode="&#90;" d="M256 448c-96 0-208-64-256-192 48-96 144-160 256-160 112 0 208 64 256 160-48 128-160 192-256 192z m0-320c-96 0-176 64-192 128 16 64 96 128 192 128 96 0 176-64 192-128-16-64-96-128-192-128z m0 224c-10 0-19-2-28-5 17-7 28-24 28-43 0-27-21-48-48-48-19 0-36 11-43 28-3-9-5-18-5-28 0-53 43-96 96-96 53 0 96 43 96 96 0 53-43 96-96 96z"/>
<glyph unicode="&#48;" d="M384 352c-32 0-224 0-256 0-32 0-64-32-64-64 0-32 0-32 0-64 0-32 32-64 64-64 32 0 224 0 256 0 32 0 64 32 64 64 0 32 0 32 0 64 0 32-32 64-64 64z m-192-128l-64 0 0 64 64 0z m96 0l-64 0 0 64 64 0z m96 0l-64 0 0 64 64 0z"/>
<glyph unicode="&#49;" d="M480 384l-112 0-32-32 96 0-64-64-224 0-64 64 96 0-32 32-112 0 0-32 80-80-80-80 0-32 112 0 32 32-96 0 64 64 224 0 64-64-96 0 32-32 112 0 0 32-80 80 80 80z m-128 32l-64 0 0 96-64 0 0-96-64 0 96-96z m-192-288l64 0 0-96 64 0 0 96 64 0-96 96z"/>
<glyph unicode="&#50;" d="M256 337c-45 0-81-36-81-81 0-45 36-81 81-81 45 0 81 36 81 81 0 45-36 81-81 81z m162-128l-14-35 26-51 3-7-36-36-59 28-35-14-18-55-2-7-51 0-22 62-36 14-51-26-7-3-36 36 28 59-14 35-55 18-7 2 0 51 62 22 14 36-26 51-3 7 36 36 59-28 35 14 18 55 2 7 51 0 22-62 36-14 51 26 7 3 36-36-28-59 14-35 55-18 7-2 0-51z"/>
<glyph unicode="&#51;" d="M256 480c-45 0-88-14-123-37l-37 37 0-128 128 0-44 44c23 12 48 20 76 20 88 0 160-72 160-160 0-88-72-160-160-160-88 0-160 72-160 160 0 23 5 44 14 64l-46 0 0 50c-20-34-32-72-32-114 0-124 100-224 224-224 124 0 224 100 224 224 0 124-100 224-224 224z m0-384l32 32 0 96 64 0 32 32-32 32-64 0-32 32-64-64 32-32 0-96z"/>
<glyph unicode="&#52;" d="M96 224l32-192 96 0 0 160 64 0 0-160 96 0 32 192-160 160z m320 96l0 128-64 0 0-64-96 96-256-256 64 0 192 192 192-192 64 0z"/>
<glyph unicode="&#53;" d="M256 80c200 157 192 212 192 256 0 43-36 96-96 96-60 0-96-64-96-64 0 0-36 64-96 64-60 0-96-53-96-96 0-44-7-99 192-256z"/>
<glyph unicode="&#54;" d="M217 489c25-67 12-103-16-132-31-32-78-56-112-103-44-63-52-200 109-236-68 35-82 138-9 203-19-63 16-103 59-88 43 14 71-16 70-51-1-24-10-45-35-56 105 18 147 105 147 171 0 87-78 99-39 172-46-4-62-35-58-85 3-33-31-55-57-40-20 12-20 36-2 54 39 38 54 126-57 191z"/>
<glyph unicode="&#55;" d="M448 480l-384 0c-16 0-32-16-32-32l0-384c0-16 16-32 32-32l384 0c16 0 32 16 32 32l0 384c0 16-16 32-32 32z m-32-368c0-8-8-16-16-16l-288 0c-9 0-16 6-16 16l0 288c0 8 8 16 16 16l288 0c8 0 16-8 16-16z m-256 112l192 0 0 64-192 0z"/>
<glyph unicode="&#56;" d="M224 224l0 32-32 0 0-32z m0 64l0 32-32 0 0-32z m0 64l0 32-32 0 0-32z m-64-32l32 0 0 32-32 0z m192 160l-288 0 0-448 384 0 0 352z m64-416l-320 0 0 384 96 0 0-32 32 0 0 32 96 0 96-96z m-256 320l32 0 0 32-32 0z m0-128l32 0 0 32-32 0z m0-64l-32-32 0-64 128 0 0 64-32 32-32 0 0 32-32 0z m64-32l0-32-64 0 0 32z"/>
<glyph unicode="&#57;" d="M448 480l-384 0c-16 0-32-16-32-32l0-384c0-16 16-32 32-32l384 0c16 0 32 16 32 32l0 384c0 16-16 32-32 32z m-32-368c0-8-8-16-16-16l-288 0c-9 0-16 6-16 16l0 288c0 8 8 16 16 16l288 0c8 0 16-8 16-16z m-160 176l-96 0 0-64 96 0 0-64 128 96-128 96z"/>
<glyph unicode="&#33;" d="M256 448c-106 0-192-86-192-192 0-106 86-192 192-192 13 0 26 1 38 4-5 2-6 20-1 30 6 11 23 40 6 49-17 10-12 14-23 25-10 11-6 13-6 16-3 9 10 24 10 26 1 1 1 7 1 8-1 2-8 7-10 7-2 0-3-3-5-3-3-1-14 7-17 8-2 2-3 7-7 10-3 4-4 1-9 3-5 2-22 8-35 13-13 6-14 13-14 18 0 6-8 13-12 18-3 6-4 13-5 12-2-2 7-22 5-22-1-1-4 5-8 10-3 5 4 2-8 26-12 24 4 36 5 48 1 12 10-5 5 3-5 8 0 25-3 31-4 6-25-7-25-7 0 6 18 16 31 25 14 9 22 2 32-1 11-4 11-3 8 1-4 3 1 5 10 3 8-1 10-11 23-10 12 1 1-2 3-5 1-4-2-3-11-9-8-6 1-6 15-16 15-11 10 7 9 15-2 8 11 1 11 1 9-6 7 0 13-2 7-2 25-17 25-17-22-12-8-14-5-16 4-3-7-9-7-9-5 5-6 0-9-1-3-2 0-6 0-6-16-3-12-19-12-23 0-4-10-10-12-16-3-5 6-18 2-18-5-1-10 18-36 11-8-2-26-11-17-30 10-18 25 5 31 3 5-3-2-15-1-15 1 0 15 0 16-16 1-16 21-15 25-15 4-1 19 11 21 12 2 1 10 8 28-3 18-10 27-9 33-13 7-4 2-13 8-16 6-2 29 1 35-8 6-10-24-58-33-63-10-5-14-17-23-25-10-8-23-17-35-25-11-6-13-18-18-21 86 19 150 95 150 187 0 106-86 192-192 192z m45-180c-3-1-8-6-21 2-14 8-23 6-24 8 0 0-1 3 5 3 12 2 27-11 30-11 3 0 5 4 11 2 6-2 2-3-1-4z m-63 161c-1 1 1 2 3 4 1 1 0 3 1 4 3 3 17 6 14-1-3-8-16-9-18-7z m34-25c-5 1-16 2-14 4 8 8-3 10-10 11-6 0-9 4-6 4 4 1 17 0 19-2 3-2 15-7 15-10 1-4 0-7-4-7z m40 2c-3-3-22 11-26 14-16 13-24 9-27 11-4 2-2 5 3 10 5 4 19-2 27-3 8-1 18-7 18-15 0-7 9-14 5-17z"/>
<glyph unicode="&#34;" d="M352 384l-96 0 0-320 96 0z m128-96l-96 0 0-224 96 0z m-448-256l0 64 32 0 0 32-32 0 0 64 32 0 0 32-32 0 0 64 32 0 0 32-32 0 0 64 32 0 0 32-32 0 0 64 32 0 0 32-64 0 0-512 512 0 0 32z m192 192l-96 0 0-160 96 0z"/>
<glyph unicode="&#35;" d="M288 384l-160 0 0-32 160 0z m64 96l-288 0 0-448 384 0 0 352z m64-416l-320 0 0 384 224 0 96-96z m-288 64l256 0 0 32-256 0z m0 64l256 0 0 32-256 0z m0 64l256 0 0 32-256 0z"/>
<glyph unicode="&#36;" d="M448 480l-384 0c-16 0-32-16-32-32l0-384c0-16 16-32 32-32l384 0c16 0 32 16 32 32l0 384c0 16-16 32-32 32z m-32-368c0-8-8-16-16-16l-288 0c-9 0-16 6-16 16l0 288c0 8 8 16 16 16l288 0c8 0 16-8 16-16z m-160 208c-35 0-64-29-64-64 0-36 29-64 64-64 36 0 64 28 64 64 0 35-28 64-64 64z"/>
<glyph unicode="&#37;" d="M448 480l-384 0c-16 0-32-16-32-32l0-384c0-16 16-32 32-32l384 0c16 0 32 16 32 32l0 384c0 16-16 32-32 32z m-32-368c0-8-8-16-16-16l-288 0c-9 0-16 6-16 16l0 288c0 8 8 16 16 16l288 0c8 0 16-8 16-16z m-256 97l0-49 49 0 143 143 0 49-49 0z"/>
<glyph unicode="&#38;" d="M352 480l-288 0 0-448 384 0 0 352z m64-416l-320 0 0 384 224 0 96-96z m-160 224c-74 0-128-56-128-160 16 68 66 96 128 96l0-64 128 96-128 96c0 0 0-40 0-64z"/>
<glyph unicode="&#39;" d="M416 151c0 0 0 153 0 201 0 48-48 96-96 96-32 0-32 0-32 0l0 64-96-96 96-96 0 64c0 0 16 0 32 0 16 0 32-16 32-32 0-16 0-201 0-201-19-11-32-32-32-55 0-36 29-64 64-64 36 0 64 28 64 64 0 23-13 44-32 55z m-32-87c-17 0-32 14-32 32 0 17 15 32 32 32 18 0 32-15 32-32 0-18-14-32-32-32z m-256 416c-35 0-64-29-64-64 0-24 13-44 32-55l0-210c-19-11-32-31-32-55 0-35 29-64 64-64 36 0 64 29 64 64 0 24-13 44-32 55l0 210c19 11 32 31 32 55 0 35-28 64-64 64z m0-416c-17 0-32 14-32 32 0 17 15 32 32 32 18 0 32-15 32-32 0-18-14-32-32-32z m0 320c-17 0-32 14-32 32 0 17 15 32 32 32 18 0 32-15 32-32 0-18-14-32-32-32z"/>
<glyph unicode="&#40;" d="M384 288c-24 0-44-13-55-32-3 0-6 0-9 0-66 0-128 50-150 112 13 11 22 29 22 48 0 35-29 64-64 64-35 0-64-29-64-64 0-24 13-44 32-55l0-210c-19-11-32-31-32-55 0-35 29-64 64-64 35 0 64 29 64 64 0 24-13 44-32 55l0 115c42-44 100-74 160-74 3 0 6 0 9 0 11-19 31-32 55-32 35 0 64 29 64 64 0 35-29 64-64 64z m-256-224c-18 0-32 14-32 32 0 18 14 32 32 32 18 0 32-14 32-32 0-18-14-32-32-32z m0 320c-18 0-32 14-32 32 0 18 14 32 32 32 18 0 32-14 32-32 0-18-14-32-32-32z m256-192c-18 0-32 14-32 32 0 18 14 32 32 32 18 0 32-14 32-32 0-18-14-32-32-32z"/>
<glyph unicode="&#41;" d="M256 480c-124 0-224-100-224-224 0-124 100-224 224-224 124 0 224 100 224 224 0 124-100 224-224 224z m0-384c-88 0-160 72-160 160 0 88 72 160 160 160 88 0 160-72 160-160 0-88-72-160-160-160z m-32 32l64 0 0 64-64 0z m0 96l64 0 0 160-64 0z"/>
<glyph unicode="&#42;" d="M352 128c-27-20-60-32-96-32-88 0-160 72-160 160 0 23 5 44 14 64l-46 0 0 50c-20-34-32-72-32-114 0-124 100-224 224-224 54 0 102 20 141 51l19-19 0 96-96 0z m-128 0l64 0 0 64-64 0z m64 256l-64 0 0-160 64 0z m192-128c0 124-100 224-224 224-54 0-102-20-141-51l-19 19 0-96 96 0-32 32c27 20 60 32 96 32 88 0 160-72 160-160 0-23-5-44-13-64l45 0 0-50c20 34 32 72 32 114z"/>
<glyph unicode="&#43;" d="M64 96l384 0-192 192z m0 320l0-64 384 0 0 64z"/>
<glyph unicode="&#44;" d="M96 64l192 192-192 192z m256 384l0-384 64 0 0 384z"/>
<glyph unicode="&#45;" d="M224 256l192-192 0 384z m-128-192l64 0 0 384-64 0z"/>
<glyph unicode="&#46;" d="M448 416l-384 0 192-192z m-384-256l0-64 384 0 0 64z"/>
<glyph unicode="&#47;" d="M384 512l-96 0c0-16-16-32-48-32-32 0-48 16-48 32l-96 0c0-64-1-192-64-192 0 0 0-272 0-288 0-16 16-32 32-32 16 0 336 0 352 0 16 0 32 16 32 32 0 16 0 288 0 288-63 0-64 128-64 192z m-304-480c-8 0-16 5-16 16 0 16 0 240 0 240 60 32 64 96 64 192l32 0c0-48 16-96 80-96 64-1 80 48 80 96l32 0c0-93 16-138 32-170l0-278c16 0-296 0-304 0z m192 288l-16-16 0-160 16-16 64 0 16 16 0 160-16 16z m48-160l-32 0 0 128 32 0z m-176 160l-16-16 0-160 16-16 64 0 16 16 0 160-16 16z m48-160l-32 0 0 128 32 0z"/>
<glyph unicode="&#58;" d="M448 416l-176 0c-8 0-16 8-16 16 0 8 0 0 0 16 0 16-16 32-32 32l-160 0c-16 0-32-16-32-32 0-16 0-352 0-352l448 0c0 0 0 272 0 288 0 16-16 32-32 32z m-384 16c0 8 8 16 16 16l128 0c8 0 16-8 16-16 0-9 0-16 0-16l-160 0c0 0 0 7 0 16z m192-272l0 64c-62 0-112-28-128-96 0 104 54 160 128 160 0 24 0 64 0 64l128-96z"/>
<glyph unicode="&#59;" d="M288 352l-64 0 0-64-64 0 0-64 64 0 0-64 64 0 0 64 64 0 0 64-64 0z m160 128c-16 0-368 0-384 0-16 0-32-16-32-32 0-16 0-368 0-384 0-16 16-32 32-32 16 0 368 0 384 0 16 0 32 16 32 32 0 16 0 368 0 384 0 16-16 32-32 32z m-32-368c0-8-8-16-16-16-7 0-279 0-288 0-9 0-16 6-16 16 0 8 0 280 0 288 0 8 8 16 16 16 8 0 281 0 288 0 8 0 16-8 16-16 0-8 0-280 0-288z"/>
<glyph unicode="&#60;" d="M256 384l-64 0 0-64-64 0 0-64 64 0 0-64 64 0 0 64 64 0 0 64-64 0z m-128-320l192 0 0 64-192 0z m224 448l-256 0 0-32 240 0 112-112 0-304 32 0 0 320z m-320-64l0-448 384 0 0 352-96 96z m352-416l-320 0 0 384 240 0 80-80z"/>
<glyph unicode="&#61;" d="M448 256c-16 0-96 0-96 0 0 16-16 32-32 32-16 0-48 0-64 0-16 0-32-16-32-32 0-16 0-160 0-160l256 0c0 0 0 112 0 128 0 16-16 32-32 32z m-128-32l-64 0c0 0 0 8 0 16 0 7 8 16 16 16 9 0 24 0 32 0 8 0 16-8 16-16 0-9 0-16 0-16z m128 160c-16 0-168 0-176 0-8 0-16 8-16 16 0 7 0 0 0 16 0 16-16 32-32 32-16 0-144 0-160 0-16 0-32-16-32-32 0-16 0-320 0-320l160 0c0 0 0 176 0 192 0 16 16 32 32 32 16 0 112 0 128 0 16 0 32-16 32-32l96 0c0-16 0 48 0 64 0 16-16 32-32 32z m-224 0l-160 0c0 0 0 8 0 16 0 8 8 16 16 16 8 0 120 0 128 0 8 0 16-9 16-16 0-8 0-16 0-16z"/>
<glyph unicode="&#62;" d="M448 151c0 0 0 153 0 201 0 48-48 96-96 96-32 0-32 0-32 0l0 64-96-96 96-96 0 64c0 0 16 0 32 0 16 0 32-16 32-32 0-16 0-201 0-201-19-11-32-32-32-55 0-36 29-64 64-64 36 0 64 28 64 64 0 23-13 44-32 55z m-32-87c-17 0-32 14-32 32 0 17 15 32 32 32 18 0 32-15 32-32 0-18-14-32-32-32z m-224 64c0 0-16 0-32 0-16 0-32 16-32 32 0 16 0 201 0 201 19 11 32 31 32 55 0 35-28 64-64 64-35 0-64-29-64-64 0-24 13-44 32-55 0 0 0-153 0-201 0-48 48-96 96-96 32 0 32 0 32 0l0-64 96 96-96 96z m-96 256c-17 0-32 14-32 32 0 17 15 32 32 32 18 0 32-15 32-32 0-18-14-32-32-32z"/>
<glyph unicode="&#63;" d="M352 354l-48-48 80-82 128 128-48 48-79-79z m-96-258c-88 0-160 72-160 160 0 88 72 160 160 160 44 0 84-18 113-47l45 45c-40 41-96 66-158 66-124 0-224-100-224-224 0-124 100-224 224-224 124 0 224 100 224 224l-100-100c4 5-38-60-124-60z m32 288l-64 0 0-160 64 0z m-64-256l64 0 0 64-64 0z"/>
<glyph unicode="&#64;" d="M256 320c18 0 32 14 32 32 0 17-14 32-32 32-17 0-32-15-32-32 0-18 15-32 32-32z m0 160c-123 0-224-101-224-224 0-124 101-224 224-224 124 0 224 100 224 224 0 123-100 224-224 224z m0-384c-88 0-160 71-160 160 0 88 72 160 160 160 89 0 160-72 160-160 0-89-71-160-160-160z m32 160c0 16-16 32-32 32-16 0-16 0-32 0-16 0-32-16-32-32l32 0c0-16 0-80 0-96 0-16 16-32 32-32 16 0 16 0 32 0 16 0 32 16 32 32l-32 0c0 16 0 80 0 96z"/>
<glyph unicode="&#91;" d="M379 288c-14 55-63 96-123 96-60 0-109-41-123-96l-101 0 0-64 101 0c14-55 63-96 123-96 60 0 109 41 123 96l101 0 0 64z m-123-96c-35 0-64 29-64 64 0 35 29 64 64 64 35 0 64-29 64-64 0-35-29-64-64-64z"/>
<glyph unicode="&#93;" d="M352 480l-288 0 0-448 384 0 0 352z m-256-32l128 0c-7-2-14-8-17-21-7-25-4-66 7-105-12-41-61-138-64-144-8-3-33-12-54-30z m142-154c28-75 47-75 67-84-42-6-74-11-116-29-2-3 38 73 49 113z m178-230l-320 0 0 0c0 0 1 0 1 0 17 0 42 10 90 91 19 8 36 14 39 15 30 7 63 13 94 16 27-13 64-23 84-24 5 0 8 1 12 1z m0 155c-12 8-27 13-45 13-12 0-25-1-39-2-13 6-46 16-73 95 8 52 6 87 6 87 3 26-12 36-26 36 0 0 0 0 0 0l81 0 96-96z"/>
<glyph unicode="&#94;" d="M384 512l-256 0c-18 0-32-14-32-32l0-448c0-18 14-32 32-32l256 0c18 0 32 14 32 32l0 448c0 18-14 32-32 32z m-144-32l32 0c9 0 16-7 16-16 0-9-7-16-16-16l-32 0c-9 0-16 7-16 16 0 9 7 16 16 16z m32-448l-32 0c-9 0-16 7-16 16 0 9 7 16 16 16l32 0c9 0 16-7 16-16 0-9-7-16-16-16z m112 64l-256 0 0 320 256 0z"/>
<glyph unicode="&#95;" d="M480 480c-16 0-432 0-448 0-16 0-32-16-32-32 0-16 0-272 0-288 0-16 16-32 32-32 16 0 160 0 160 0 0 0-96-32-96-64 0-16 16-32 32-32 16 0 240 0 256 0 16 0 32 16 32 32 0 32-96 64-96 64 0 0 144 0 160 0 16 0 32 16 32 32 0 16 0 272 0 288 0 16-16 32-32 32z m0-320l-448 0 0 288 448 0z m-32 256l-96 0c-192-32-271-150-288-192l0-32 384 0z"/>
<glyph unicode="&#96;" d="M288 416c-18 0-32-14-32-32 0-18 14-32 32-32 18 0 32 14 32 32 0 18-14 32-32 32z m160-96l-64-64 0 32c0 15-11 28-25 31 15 17 25 40 25 65 0 53-43 96-96 96-51 0-92-39-96-89-17 16-39 25-64 25-53 0-96-43-96-96 0-53 43-96 96-96l-32 0 0-64 32 0 0-64c0-18 14-32 32-32l192 0c18 0 32 14 32 32l0 32 64-64 32 0 0 256z m-320 32c-18 0-32-14-32-32 0-18 14-32 32-32l0-32c-35 0-64 29-64 64 0 35 29 64 64 64 35 0 64-29 64-64l-32 0c0 18-14 32-32 32z m160-192l-64 0 0 64 64 0z m64 55c-17 16-35 35-37 36-3 3-7 5-11 5l-96 0c-9 0-16-7-16-16l0-96c0-4 2-8 4-11 0 0 20-19 37-37l-57 0c-9 0-16 7-16 16l0 160c0 9 7 16 16 16l160 0c9 0 16-7 16-16z m-64 105c-35 0-64 29-64 64 0 35 29 64 64 64 35 0 64-29 64-64 0-35-29-64-64-64z m160-160l-32 32 0 64 32 32z"/>
<glyph unicode="&#123;" d="M256 320c-35 0-64-29-64-64 0-35 29-64 64-64 3 0 6 0 8 1-23 3-40 23-40 47 0 27 21 48 48 48 24 0 44-17 47-40 1 2 1 5 1 8 0 35-29 64-64 64z m192 64l-64 0-64 64-128 0-64-64-64 0c-18 0-32-14-32-32l0-224c0-18 14-32 32-32l384 0c18 0 32 14 32 32l0 224c0 18-14 32-32 32z m-240 32l96 0 32-32-160 0z m-128-288c-9 0-16 7-16 16l0 144 32 0 0 32-32 0 0 16c0 9 7 16 16 16l91 0c-2-2-4-4-6-5-49-50-49-132 0-182l38-37z m176 32c-53 0-96 43-96 96 0 53 43 96 96 96 53 0 96-43 96-96 0-53-43-96-96-96z m160 112l-75 80 75 0z"/>
<glyph unicode="&#124;" d="M256 32c-106 0-192 29-192 64 0 19 0 40 0 64 0 6 3 11 7 16 21-28 96-48 185-48 89 0 164 20 185 48 4-5 7-10 7-16 0-19 0-38 0-64 0-35-86-64-192-64z m0 128c-106 0-192 29-192 64 0 19 0 40 0 64 0 3 1 7 3 10 1 2 2 4 4 6 21-28 96-48 185-48 89 0 164 20 185 48 2-2 3-4 4-6 2-3 3-7 3-10 0-19 0-38 0-64 0-35-86-64-192-64z m0 128c-106 0-192 29-192 64 0 10 0 21 0 32 0 10 0 21 0 32 0 35 86 64 192 64 106 0 192-29 192-64 0-10 0-21 0-32 0-10 0-20 0-32 0-35-86-64-192-64z m0 160c-71 0-128-14-128-32 0-18 57-32 128-32 71 0 128 14 128 32 0 18-57 32-128 32z"/>
<glyph unicode="&#125;" d="M64 32l0 448 288 0 96-96 0-352z m352 320l-96 96-224 0 0-384 320 0z m-192-96l-96 0 0 128 96 0z m-32 96l-32 0 0-64 32 0z m0-224l32 0 0-32-96 0 0 32 32 0 0 64-32 0 0 32 64 0z m128 160l32 0 0-32-96 0 0 32 32 0 0 64-32 0 0 32 64 0z m32-192l-96 0 0 128 96 0z m-32 96l-32 0 0-64 32 0z"/>
<glyph unicode="&#126;" d="M208 320l-80-80 80-80 32 32-48 48 48 48z m64-32l48-48-48-48 32-32 80 80-80 80z m80 192l-288 0 0-448 384 0 0 352z m64-416l-320 0 0 384 224 0 96-96z"/>
<glyph unicode="&#92;" d="M448 416c-16 0-168 0-176 0-8 0-16 8-16 16 0 8 0 0 0 16 0 16-16 32-32 32-16 0-144 0-160 0-16 0-32-16-32-32 0-16 0-352 0-352l448 0c0 0 0 272 0 288 0 16-16 32-32 32z m-224 0l-160 0c0 0 0 7 0 16 0 8 8 16 16 16 8 0 121 0 128 0 8 0 16-8 16-16 0-9 0-16 0-16z"/>
<glyph unicode="&#57344;" d="M352 480l-288 0 0-448 384 0 0 352z m64-416l-320 0 0 384 224 0 96-96z m-288 320l0-256 64 0c0 35 29 64 64 64-35 0-64 29-64 64 0 35 29 64 64 64 35 0 64-29 64-64 0-35-29-64-64-64 35 0 64-29 64-64l64 0 0 192-64 64z"/>
<glyph unicode="&#57345;" d="M352 416c-35 0-64-29-64-64 0-24 13-44 32-55l0-9c0-32-32-64-64-64-26 0-47-6-64-15l0 152c19 11 32 31 32 55 0 35-28 64-64 64-35 0-64-29-64-64 0-24 13-44 32-55l0-210c-19-11-32-31-32-55 0-35 29-64 64-64 36 0 64 29 64 64 0 17-6 32-17 44 10 11 25 20 49 20 64 0 128 64 128 128l0 9c19 11 32 32 32 55 0 36-28 64-64 64z m-192 32c18 0 32-15 32-32 0-18-14-32-32-32-17 0-32 14-32 32 0 17 15 32 32 32z m0-384c-17 0-32 14-32 32 0 17 15 32 32 32 18 0 32-15 32-32 0-18-14-32-32-32z m192 256c-17 0-32 14-32 32 0 17 15 32 32 32 18 0 32-15 32-32 0-18-14-32-32-32z"/>
<glyph unicode="&#57346;" d="M416 416l-320 0-32-192 0-128 384 0 0 128z m-64-192l-32-64-128 0-32 64-56 0 24 160 256 0 25-160z"/>
<glyph unicode="&#57347;" d="M256 480c-141 0-256-115-256-256 0 0 0-96 0-128 0-32 32-64 64-64 32 0 352 0 384 0 32 0 64 32 64 64 0 32 0 128 0 128 0 141-114 256-256 256z m48-384l-96 0c-9 0-16 7-16 16 0 9 7 16 16 16l96 0c9 0 16-7 16-16 0-9-7-16-16-16z m144 64c0-16-16-32-32-32-16 0-64 0-64 0 0 16-16 32-32 32-16 0-112 0-128 0-16 0-32-16-32-32 0 0-48 0-64 0-16 0-32 16-32 32 0 16 0 180 0 180 39 64 110 108 192 108 82 0 153-44 192-108 0 0 0-164 0-180z m-64 192c-16 0-240 0-256 0-16 0-32-16-32-32 0-16 0-48 0-64 0-16 16-32 32-32 16 0 240 0 256 0 16 0 32 16 32 32 0 16 0 48 0 64 0 16-16 32-32 32z m0-64l-32-32-64 0-32 32-32-32-64 0-32 32 0 32 32 0 32-32 32 32 64 0 32-32 32 32 32 0z"/>
<glyph unicode="&#57348;" d="M129 160l64-96-128 0-33 128 129 32z m224 64l32-64-64-96 128 0 32 128z m-42 0l-108 0 22-51-32-109 128 0-32 109z m42 96l-192 0-64-32 320 0z m-32 128l-64-32-64 32-32-96 192 0z"/>
<glyph unicode="&#57349;" d="M272 320l48-48-48-48 32-32 80 80-80 80z m-208 160l0-416 384 0 0 416z m352-384l-320 0 0 352 320 0z m-176 128l-48 48 48 48-32 32-80-80 80-80z"/>
<glyph unicode="&#57350;" d="M256 32l160 0 0 160-160 0z m-192 0l160 0 0 160-160 0z m192 292c16 2 33 4 44 5 42 4 79 42 84 84 5 42-26 72-67 67-33-3-63-27-77-57-14 30-44 54-77 58-41 4-72-26-67-68 5-42 43-80 84-84 11-1 28-3 44-5 0-2 0-4 0-4l32 0c0 0 0 2 0 4z m54 118c22 2 39-14 36-37-2-22-23-43-45-45-23-3-39 13-37 36 3 23 23 43 46 46z m-131-82c-22 2-43 23-45 45-3 23 14 39 36 37 23-3 43-23 46-46 2-23-14-39-37-36z m77-40l0-96 192 0 0 96z m-224-96l192 0 0 96-192 0z"/>
<glyph unicode="&#57351;" d="M128 288l64 0 0-64 32 0 0 192-32 0 0-96-64 0 0 96-32 0 0-192 32 0z m288-64l0 64-32 0 0-64z m0 96l0 64-32 0 0-64z m-96 0l0 64 64 0 0 32-96 0 0-192 32 0 0 64 64 0 0 32z m-224-224l320 0 0 64-320 0z"/>
<glyph unicode="&#57352;" d="M350 256c59 42 98 120 98 192 0 35-86 64-192 64-106 0-192-29-192-64 0-72 40-150 99-192-59-43-99-120-99-192 0-36 86-64 192-64 106 0 192 28 192 64 0 72-40 149-98 192z m-94 224c71 0 128-15 128-32 0-18-57-32-128-32-70 0-128 14-128 32 0 17 58 32 128 32z m-32-353c-77-4-119-20-126-41 8 57 37 94 70 125 37 34 56 30 56 52l0-137z m-52 176c-35 27-61 65-71 107 35-16 91-26 155-26 64 0 121 10 156 26-10-42-36-80-71-107-12 8-35 17-85 17-49 0-72-9-84-17z m116-176l0 136c0-21 20-17 56-51 33-31 63-69 71-126-7 21-50 38-127 41z"/>
<glyph unicode="&#57353;" d="M320 224l32 0 0 64-32 0z m64 160l-32 0 0-64 32 0z m-64 0l-32 0 0-64 32 0z m-64-160l32 0 0 64-32 0z m-64-96l160 0 0 64-160 0z m192 96l64 0 0 160-32 0 0-96-32 0z m-256-96l32 0 0 64-32 0z m256 0l64 0 0 64-64 0z m-128 256l-32 0 0-64 32 0z m-160-96l-32 0 0-64 32 0z m0-96l-32 0 0-64 32 0z m-96 256l0-384 512 0 0 384z m480-352l-448 0 0 320 448 0z m-288 128l32 0 0 64-32 0z m-64 160l-64 0 0-64 64 0z m64 0l-32 0 0-64 32 0z m-64-160l32 0 0 64-32 0z"/>
<glyph unicode="&#57354;" d="M352 480c-70 0-128-57-128-128 0-10 1-19 3-28l-195-196 0-32 32-32 64 0 32 32 0 32 32 0 0 32 32 0 0 32 64 0 35 35c10-2 19-3 29-3 71 0 128 57 128 128 0 71-57 128-128 128z m-128-224l-160-160 0 32 160 160z m160 96c-18 0-32 14-32 32 0 18 14 32 32 32 17 0 32-14 32-32 0-18-15-32-32-32z"/>
<glyph unicode="&#57355;" d="M256 432l-192-144 192-144 0 96c56 0 165-31 192-140 0 145-98 225-192 236z"/>
<glyph unicode="&#57356;" d="M502 410l-1 0c-12 12-32 12-45 0l-22-23-46 46 23 22c13 13 13 33 0 45l0 1c-13 12-33 12-45 0l-24-24c-31 20-73 17-101-11l-12-12c-55-54-61-139-20-200l-2-2c-31-32-31-82 0-113 6-7 6-17 0-23-6-7-16-6-22 0l-45 44c-31 32-82 32-114 1-31-31-31-82 0-113l5-5c12-12 32-12 44 0l1 1c12 12 12 32 0 45l-4 4c-6 6-7 16-1 22 6 7 17 7 23 1l45-45c31-31 83-32 114 0 31 31 31 81 0 113-7 6-7 16 0 22l2 2c61-41 146-35 200 20l13 12c27 28 30 70 10 101l24 24c12 12 12 32 0 45z m-57-147c-19-19-49-19-68 0l-113 113c-19 19-19 49 0 68 15 15 37 18 55 9l-21-21c-13-12-13-32 0-45l0 0c12-12 32-12 45 0l23 23 45-45-23-23c-12-13-12-33 0-45l1 0c12-13 32-13 44 0l21 20c9-17 6-39-9-54z"/>
<glyph unicode="&#57357;" d="M448 448c0 35-28 64-64 64-35 0-64-29-64-64 0-24 13-45 32-56l0-53-96-106-96 106 0 53c19 11 32 32 32 56 0 35-28 64-64 64-35 0-64-29-64-64 0-24 13-45 32-56l0-78 128-141 0-54c-19-11-32-32-32-56 0-35 29-64 64-64 36 0 64 29 64 64 0 24-13 45-32 56l0 54 128 141 0 78c19 11 32 32 32 56z m-320 31c17 0 31-14 31-31 0-17-14-31-31-31-17 0-31 14-31 31 0 17 14 31 31 31z m128-445c-17 0-31 14-31 31 0 17 14 31 31 31 17 0 31-14 31-31 0-17-14-31-31-31z m128 445c17 0 31-14 31-31 0-17-14-31-31-31-17 0-31 14-31 31 0 17 14 31 31 31z"/>
<glyph unicode="&#57358;" d="M288 288l0 128-64 0 0-128-128 0 0-64 128 0 0-128 64 0 0 128 128 0 0 64z"/>
<glyph unicode="&#57359;" d="M448 352l0-64-64 0 0 64-96-96 96-96 0 64 96 0c0 0 32 0 32 32 0 32 0 96 0 96z m-336 16c-62 0-112-50-112-112 0-62 50-112 112-112 62 0 112 50 112 112 0 62-50 112-112 112z m-64-112c0 35 29 64 64 64 9 0 18-2 26-6l-84-84c-4 8-6 17-6 26z m64-64c-9 0-18 2-26 6l84 84c4-8 6-17 6-26 0-35-29-64-64-64z"/>
<glyph unicode="&#57360;" d="M96 320l-64 0 0-128 64 0 128-96 32 0 0 320-32 0z m368-16l-32 32-48-48-48 48-31-32 47-48-48-48 32-32 48 48 48-48 32 32-48 48z"/>
<glyph unicode="&#57361;" d="M257 416c17 0 31 14 31 31 1 18-14 33-33 33-17-1-30-14-31-31 0-19 15-34 33-33z m232-192l-9 0-63 123c9 1 18 4 26 8 12 5 14 21 5 31l0 0c-6 6-14 8-22 4-7-3-17-6-26-6-28 0-41 32-144 32-103 0-115-32-143-32-10 0-20 3-27 6-7 3-16 2-21-4l-1 0c-9-10-6-25 6-31 8-4 17-7 26-8l-64-123-9 0c-4 0-7-4-6-8 5-32 46-56 95-56 50 0 90 24 96 56 0 4-3 8-7 8l-9 0-63 122c41 4 63 25 95 25l0-243c-17 0-32-15-32-32l-35 0c-14 0-29-15-29-32l256 0c0 17-14 32-35 32l-29 0c0 17-14 32-32 32l0 243c32 0 54-21 96-25l-64-122-9 0c-4 0-7-4-6-8 5-32 46-56 95-56 50 0 90 24 96 56 0 4-3 8-7 8z m-329 0l-96 0 48 90z m192 0l48 90 48-90z"/>
<glyph unicode="&#57362;" d="M256 480c-88 0-160-72-160-160 0-52 25-99 64-128l0-96c0-18 14-32 32-32 0-18 14-32 32-32l64 0c18 0 32 14 32 32 18 0 32 14 32 32l0 96c39 29 64 76 64 128 0 88-72 160-160 160z m64-368c0-9-7-16-16-16l-96 0c-9 0-16 7-16 16l0 16 128 0z m32 123c-17-16-32-21-32-62l0-13-32 0 0 64 64 64 0 32-32 32-32-32-32 32-32-32-32 32-32-32 0-32 64-64 0-64-32 0 0 13c0 41-15 46-32 62-20 23-32 53-32 85 0 71 57 128 128 128 71 0 128-57 128-128 0-32-12-62-32-85z m-96-11l-64 64 0 32 32-32 32 32 32-32 32 32 0-32z"/>
<glyph unicode="&#57363;" d="M384 384l-69 0c24-16 47-45 54-64l15 0c32 0 64-32 64-64 0-32-33-64-64-64l-96 0c-32 0-64 32-64 64 0 11 3 22 9 32l-69 0c-2-11-4-21-4-32 0-64 64-128 128-128 64 0 32 0 96 0 64 0 128 64 128 128 0 64-64 128-128 128z m-240-192l-15 0c-33 0-64 32-64 64 0 32 32 64 64 64l96 0c31 0 64-32 64-64 0-12-4-23-9-32l68 0c3 10 4 21 4 32 0 64-63 128-127 128-64 0-33 0-97 0-64 0-128-64-128-128 0-64 64-128 128-128l69 0c-24 16-46 44-53 64z"/>
<glyph unicode="&#57364;" d="M384 128l-256 0 0 255 64 1 0 64-128 0 0-384 384 0 0 160-64 0z m-128 320l64-64-96-96 64-64 96 96 64-64 0 192z"/>
<glyph unicode="&#57365;" d="M224 224l224 0 0 64-224 0z m0-128l224 0 0 64-224 0z m0 320l0-64 224 0 0 64z m-120-128l39 0 0 128-18 0-43-12 0-25 22 1z m55-103c0 18-6 39-48 39-17 0-32-3-42-8l1-33c10 5 21 7 33 7 13 0 16-5 16-14 0-13-15-29-55-56l0-25 96 0 0 34-45-1c24 15 43 33 43 56z"/>
<glyph unicode="&#57366;" d="M64 224l64 0 0 64-64 0z m0 128l64 0 0 64-64 0z m0-256l64 0 0 64-64 0z m128 128l256 0 0 64-256 0z m0 128l256 0 0 64-256 0z m0-256l256 0 0 64-256 0z"/>
<glyph unicode="&#57367;" d="M256 512c-88 0-160-72-160-160 0-89 80-208 160-352 80 144 160 263 160 352 0 88-71 160-160 160z m0-224c-35 0-64 28-64 64 0 35 29 64 64 64 36 0 64-29 64-64 0-36-28-64-64-64z"/>
<glyph unicode="&#57368;" d="M416 288c-16 0-32 0-32 0 0 0 0 32 0 96 0 64-64 128-128 128-64 0-128-64-128-128 0-64 0-96 0-96 0 0-16 0-32 0-16 0-32-16-32-32 0-16 0-208 0-224 0-16 16-32 32-32 16 0 304 0 320 0 16 0 32 16 32 32 0 16 0 208 0 224 0 16-16 32-32 32z m-96-64l-192 0 0-32 192 0 0-32-192 0 0-32 192 0 0-32-192 0 0-32 192 0 0-32-224 0 0 224 224 0z m0 64l-128 0c0 0 0 64 0 96 0 32 32 64 64 64 32 0 64-32 64-64 0-32 0-96 0-96z"/>
<glyph unicode="&#57369;" d="M99 288l-43 0c-1 0-2-1-2-2l0-21c0-1 1-2 2-2l17 0 0-26c0 0-4-1-15-1-12 0-29 4-29 42 0 38 18 43 35 43 14 0 21-3 25-4 1 0 2 1 2 2l5 20c0 1 0 2-1 2-2 1-12 7-37 7-28 0-58-13-58-72 0-59 34-67 62-67 24 0 38 10 38 10 1 0 1 1 1 1l0 66c0 1-1 2-2 2z m219 55l-25 0c-1 0-2-1-2-2l0-47-38 0 0 47c0 1-1 2-2 2l-24 0c-1 0-2-1-2-2l0-128c0-1 1-2 2-2l24 0c1 0 2 1 2 2l0 55 38 0 0-55c0-1 1-2 2-2l25 0c1 0 2 1 2 2l0 128c0 1-1 2-2 2z m-190-3c-9 0-16-7-16-16 0-9 7-16 16-16 9 0 16 7 16 16 0 9-7 16-16 16z m14-41c0 1-1 2-2 2l-24 0c-1 0-2-1-2-2 0 0 0-71 0-84 0-3 1-4 3-4 0 0 11 0 22 0 2 0 3 2 3 4 0 4 0 22 0 25 0 3 0 59 0 59z m270 2l-24 0c-1 0-2-1-2-2l0-63c0 0-6-4-15-4-9 0-11 4-11 12 0 9 0 55 0 55 0 1-1 2-2 2l-25 0c-1 0-2-1-2-2 0 0 0-33 0-59 0-25 14-31 34-31 16 0 29 9 29 9 0 0 0-5 1-6 0 0 0-1 1-1l16 0c1 0 2 1 2 2l0 86c0 1-1 2-2 2z m66 3c-14 0-23-6-23-6l0 43c0 1-1 2-2 2l-25 0c-1 0-2-1-2-2l0-128c0-1 1-2 2-2 0 0 17 0 17 0 1 0 2 1 2 1 1 1 1 6 1 6 0 0 10-9 29-9 22 0 35 11 35 50 0 40-20 45-34 45z m-10-72c-8 0-14 4-14 4l0 40c0 0 6 4 13 4 9 1 17-1 17-22 0-22-4-26-16-26z m-256 0c-1 0-3 0-6 0-9 0-12 4-12 10 0 5 0 35 0 35l18 0c1 0 2 1 2 2l0 20c0 1-1 2-2 2l-18 0 0 24c0 1-1 2-2 2l-25 0c-1 0-1-1-1-2l0-25c0 0-13-3-13-3-1 0-2-1-2-2l0-16c0-1 1-2 2-2l13 0c0 0 0-16 0-37 0-28 19-31 33-31 6 0 13 2 14 2 1 1 1 1 1 2l0 17c0 2-1 2-2 2z"/>
<glyph unicode="&#57370;" d="M32 416l0-320 448 0 0 320z m384-32l-160-132-160 132z m-352-32l126-96-126-96z m32-224l127 103 33-25 33 25 127-103z m352 32l-126 96 126 96z"/>
<glyph unicode="&#57371;" d="M320 320l-160 0 0-32 160 0z m-96 64l-64 0 0-32 64 0z m192 14l0 50-70 0-90 64-90-64-70 0 0-50-64-46 0-320 448 0 0 320z m-288 18l256 0 0-122-128-106-128 106z m-64-128l126-96-126-96z m32-224l127 103 33-25 33 25 127-103z m352 32l-126 96 126 96z"/>
<glyph unicode="&#57372;" d="M475 416l-438 0c-20 0-37-17-37-37l0-246c0-20 17-37 37-37l438 0c20 0 37 17 37 37l0 246c0 20-17 37-37 37z m-187-256l-64 0 0 96-48-62-48 62 0-96-64 0 0 192 64 0 48-64 48 64 64 0z m96-16l-80 112 48 0 0 96 64 0 0-96 48 0z"/>
<glyph unicode="&#57373;" d="M416 496c-65 0-62-65-352-64-35 0-64-57-64-128 0-71 29-128 64-128 11 0 22 0 32 0l32-144 96-16 32 48-23 102c122-19 134-54 183-54 53 0 96 86 96 192 0 106-43 192-96 192z m-317-225c-20 0-42 1-64 1-2 10-3 21-3 32 0 44 14 96 32 96 20 0 38 0 55 1-14-24-23-58-23-97 0-12 1-23 3-33z m32-2c-2 11-3 23-3 35 0 40 9 75 23 98 78 4 126 14 160 25-14-33-23-76-23-123 0-20 2-39 5-57-36 9-87 18-162 22z m285-109c-6 0-12 3-17 6-8 34-42 209 58 247 14-26 23-65 23-109 0-80-29-144-64-144z"/>
<glyph unicode="&#57374;" d="M281 462c-114 14-217-67-231-181-14-114 67-217 181-231 35-5 72 0 106 15l0 0c13 5 18 19 13 31-5 12-19 18-31 13l0 0c-27-11-55-15-82-12-88 11-151 91-140 178 11 88 91 151 179 140 87-11 150-91 139-179-2-17-11-27-31-27-21 0-32 23-32 40l0 63c0 13-11 24-24 24-5 0-9-1-13-4-13 10-29 17-47 19-53 7-101-31-107-83-7-53 31-101 83-107 29-4 58 7 79 26 13-14 30-24 50-26 44-5 84 26 89 70 14 114-67 217-181 231z m23-212c-4-26-28-45-54-42-26 4-45 28-42 54 4 26 28 45 54 42 26-4 45-28 42-54z"/>
<glyph unicode="&#57375;" d="M373 64c43 9 75 50 75 96 0 29-13 55-34 73 1 7 2 15 2 23 0 52-25 99-64 128l32 32 0 32 32 32-32 32-32-32-32 0-128-128-64-32 0-64 32-32 64 0 32 64 48 48c28-17 48-45 48-80-53 0-96-43-96-96l-192 0 0-32 96 0c10-7 21-11 32-16l0-48-64 0-64-64 384 0-64 64z m-53 96c0 18 14 32 32 32 18 0 32-14 32-32 0-18-14-32-32-32-18 0-32 14-32 32z"/>
<glyph unicode="&#57376;" d="M400 416l-352 0 0-128 352 0 64 64z m-128-96l-64 0 0 64 64 0z m0 192l-64 0 0-64 64 0z m-64-512l64 0 0 256-64 0z"/>
<glyph unicode="&#57377;" d="M160 352l-96-96 96-96 0 64 192 0 0-64 96 96-96 96 0-64-192 0z m96 160l-256-160 0-352 256 128 256-128 0 352z m224-448l-192 96 0 32-64 0 0-32-192-96 0 256 192 128 0-128 64 0 0 128 192-128z"/>
<glyph unicode="&#57378;" d="M251 218l-123 38c0 0 0-48 0-80 0-32 58-48 128-48 71 0 128 16 128 48 0 32 0 80 0 80l-122-38c-4-1-8-1-12 0z m9 204c-2 1-5 1-7 0l-244-76c-11-3-11-18 0-21l55-18 0-56c-9-6-16-16-16-28 0-6 2-11 5-16-3-4-5-10-5-16l0-82c0-18 64-18 64 0l0 82c0 6-1 12-4 16 2 5 4 10 4 16 0 12-6 22-16 28l0 46 157-49c2 0 4 0 6 0l245 76c10 4 10 18 0 22z m-3-102c-18 0-32 7-32 16 0 9 14 16 32 16 17 0 32-7 32-16 0-9-15-16-32-16z"/>
<glyph unicode="&#57379;" d="M416 352l-96 0 0 160-128 0 0-160-96 0 160-192z m-320-352l320 0 0 96-320 0z"/>
<glyph unicode="&#57380;" d="M0 96l96 0 0 320-96 0z m352 224l0 96-192-160 192-160 0 96 160 0 0 128z"/>
<glyph unicode="&#57381;" d="M416 416l0-320 96 0 0 320z m-256-96l-160 0 0-128 160 0 0-96 192 160-192 160z"/>
<glyph unicode="&#57382;" d="M96 160l96 0 0-160 128 0 0 160 96 0-160 192z m0 352l0-96 320 0 0 96z"/>
<glyph unicode="&#57383;" d="M470 373c5 10 18 51-4 106 0 0-34 11-110-41-32 8-66 10-100 10-34 0-68-2-100-10-76 52-110 41-110 41-22-55-9-96-4-106-26-28-42-63-42-107 0-165 107-202 255-202 149 0 257 37 257 202 0 44-16 79-42 107z m-214-278c-106 0-191 5-191 108 0 24 12 47 32 66 35 31 93 15 159 15 66 0 124 16 159-15 20-19 32-42 32-66 0-103-85-108-191-108z m-80 161c-22 0-39-26-39-57 0-32 17-57 39-57 21 0 38 25 38 57 0 31-17 57-38 57z m160 0c-21 0-38-26-38-57 0-32 17-57 38-57 22 0 39 25 39 57 0 31-17 57-39 57z"/>
<glyph unicode="&#57384;" d="M416 320l-320 0c-35 0-64-29-64-64l0-32c0-24 13-44 32-55l0-105 128 0 0-64 128 0 0 64 128 0 0 105c19 11 32 31 32 55l0 32c0 35-29 64-64 64z m-256-224l-64 0 0 128-32 0 0 32c0 18 14 32 32 32l41 0c-6-9-9-20-9-32l0-64c0-24 13-44 32-55z m160 64l0 64-32 0 0-192-64 0 0 192-32 0 0-64c-18 0-32 14-32 32l0 64c0 18 14 32 32 32l128 0c18 0 32-14 32-32l0-64c0-18-14-32-32-32z m128 64l-32 0 0-128-64 0 0 41c19 11 32 31 32 55l0 64c0 12-3 23-9 32l41 0c18 0 32-14 32-32z m-264 129c17-20 43-33 72-33 29 0 55 13 72 33 11-19 32-33 56-33 35 0 64 29 64 64 0 35-29 64-64 64-13 0-25-4-35-10-10 42-47 74-93 74-46 0-83-32-93-74-10 6-22 10-35 10-35 0-64-29-64-64 0-35 29-64 64-64 24 0 45 14 56 33z m200 63c18 0 32-14 32-32 0-18-14-32-32-32-18 0-32 14-32 32 0 18 14 32 32 32z m-128 64c35 0 64-29 64-64 0-35-29-64-64-64-35 0-64 29-64 64 0 35 29 64 64 64z m-128-128c-18 0-32 14-32 32 0 18 14 32 32 32 18 0 32-14 32-32 0-18-14-32-32-32z"/>
<glyph unicode="&#57385;" d="M240 480l-240-64 0-288 240-64 240 64 0 288z m-208-328l0 216 192-51 0-217z m0 248l80 21 208-55 0 0-80-22z m416-248l-192-52 0 217 64 17 0-78 64 17 0 78 64 17z m-64 231l0 0-208 55 64 18 208-56z"/>
<glyph unicode="&#57386;" d="M256 512c-106 0-192-86-192-192l0-32c0-18 14-32 32-32l0-160c0-35 72-64 160-64 88 0 160 29 160 64l0 160c18 0 32 14 32 32l0 32c0 106-86 192-192 192z m96-320l0-16c0-9-7-16-16-16-9 0-16 7-16 16l0 16c0 9-7 16-16 16-9 0-16-7-16-16l0-80c0-9-7-16-16-16-9 0-16 7-16 16l0 64c0 9-7 16-16 16-9 0-16-7-16-16l0-16c0-18-14-32-32-32-18 0-32 14-32 32l0 32c-18 0-32 14-32 32l0 58c29-16 76-26 128-26 52 0 99 10 128 26l0-58c0-18-14-32-32-32z m-96 96c-54 0-100 13-119 32 19 19 65 32 119 32 54 0 100-13 119-32-19-19-65-32-119-32z m0 96c-88 0-160-29-160-64 0 0 0 0 0 0 0 88 72 160 160 160 88 0 160-72 160-160 0 35-72 64-160 64z"/>
<glyph unicode="&#57387;" d="M384 480l-64-64 96-96 64 64z m-352-352l0-96 96 0 256 256-96 96z m96-64l-64 0 0 64 32 0 0-32 32 0z"/>
<glyph unicode="&#57388;" d="M352 416c0 53-43 96-96 96-53 0-96-43-96-96 0-53 43-96 96-96 53 0 96 43 96 96z m-96-64c-35 0-64 29-64 64 0 35 29 64 64 64 35 0 64-29 64-64 0-35-29-64-64-64z m64-32l-128 0c-35 0-64-29-64-64l0-64c0-35 29-64 64-64l0-128 128 0 0 128c35 0 64 29 64 64l0 64c0 35-29 64-64 64z m32-128c0-18-14-32-32-32l0 64-32 0 0-192-64 0 0 192-32 0 0-64c-18 0-32 14-32 32l0 64c0 18 14 32 32 32l128 0c18 0 32-14 32-32z"/>
<glyph unicode="&#57389;" d="M224 160l32-160 32 160c-10-1-21-2-32-2-10 0-22 1-32 2z m127 149c-16 9-31 30-31 43l0 32c0 11 6 19 12 26 7 6 12 14 12 22 0 27-31 48-88 48-57 0-87-21-87-48 0-8 4-16 12-22 5-7 11-15 11-26l0-32c0-13-14-34-31-43-19-9-35-27-35-44 0-37 51-74 130-74 80 0 130 37 130 74 0 17-15 34-35 44z"/>
<glyph unicode="&#57390;" d="M64 128l192 128-192 128z m384 128l-192 128 0-256z"/>
<glyph unicode="&#57391;" d="M128 96l96 0 0 320-96 0z m160 320l0-320 96 0 0 320z"/>
<glyph unicode="&#57392;" d="M128 416l256-160-256-160z"/>
<glyph unicode="&#57393;" d="M256 256l192-128 0 256z m-192 0l192-128 0 256z"/>
<glyph unicode="&#57394;" d="M224 512c-16 0-32-16-32-32 0-16 0-32 0-32l-32 0-96-96 0-64 96 0 32-192-64-32 0-32 256 0 0 32-64 32 32 192 96 0 0 64-96 96-128 0 0 32c0 0 7 0 16 0 9 0 16 8 16 16 0 7-8 16-16 16-8 0 0 0-16 0z m0-416l-26 160 59 0-1-160z m-112 256l64 64 16 0 0-32 32 0 0 32 112 0 64-64z"/>
<glyph unicode="&#57395;" d="M128 256c0 71 57 128 128 128 71 0 128-57 128-128 0-71-57-128-128-128-71 0-128 57-128 128z"/>
<glyph unicode="&#57396;" d="M384 128l-256 0 0 256 256 0z"/>
<glyph unicode="&#57397;" d="M400 256l-86 83-71-99-35 221-100-205-76 0 0-64 115 0 29 58 29-173 115 163 51-48 109 0 0 64z"/>
<glyph unicode="&#57398;" d="M378 224c-7 5-14 9-22 10-4 1-9 2-14 1-4 0-8-1-12-1-4-1-7-2-10-4-9-4-17-9-23-15-6-6-11-14-15-23-2-3-3-6-4-9 0-5-1-9-1-13-1-5 0-10 1-14 1-8 5-15 10-22 2-3 4-5 6-7 10-10 23-16 38-17 4-1 9-1 13-3 2 0 4-2 6-3 3-3 4-8 1-14-1-3-4-6-6-9l-2-2c-2-2-3-3-3-3-2-2-3-3-5-5l-1-1c-6-5-11-11-16-16-11-11-23-23-34-34-4-4-8-8-12-11-1-2-3-4-5-5-1 0-2-1-3-1-9-5-20-3-29 6-3 2-5 5-8 8-15 15-30 30-45 45-5 4-9 8-13 13-3 3-7 6-10 8-3 2-6 4-9 5-10 4-21 1-27-7-2-2-4-5-5-8-2-5-2-10-3-15-2-18-13-34-28-41-4-2-8-3-12-4-4-1-8-1-12 0-13 0-24 6-34 16-1 1-1 1-1 1-10 10-16 21-16 34-1 4-1 8 0 12 1 4 2 8 4 12 7 15 23 26 41 28 5 1 10 1 15 3 3 1 6 3 9 5 7 7 10 17 6 26-1 4-3 7-5 10-2 3-5 7-8 10-5 4-9 8-13 12-14 14-27 27-40 41l-5 5c-3 3-6 5-8 8-9 9-11 20-6 29 0 1 1 2 1 3 1 2 3 4 5 5 3 4 7 8 11 12 11 11 23 22 34 34 5 5 11 10 16 16l1 1c2 2 3 3 5 5 0 0 1 1 3 3l2 2c3 2 6 5 9 6 6 3 11 2 14-1 1-2 3-4 3-6 2-4 2-9 3-13 1-15 7-28 17-38 2-2 4-4 7-6 7-5 14-9 22-10 4-1 9-2 14-1 4 0 8 1 13 1 3 1 6 2 9 4 9 4 17 9 23 15 6 6 11 14 15 23 2 3 3 6 4 9 0 5 1 9 1 13 1 5 0 10-1 14-1 8-5 15-10 22-2 3-4 5-6 7-10 10-23 16-38 17-4 1-9 1-13 3-2 0-4 2-6 3-3 3-4 8-1 14 1 3 4 6 6 9l2 2c2 2 3 3 3 3 2 2 3 3 5 5l1 1c6 5 11 11 16 16 12 11 23 23 34 34 4 4 8 8 12 11 1 2 3 4 5 5 1 0 2 1 3 1 9 5 20 3 29-6 3-2 5-5 8-8 15-15 30-30 45-45 5-4 9-8 13-13 3-3 7-6 10-8 3-2 6-4 9-5 10-4 21-1 27 7 2 2 4 5 5 8 2 5 2 10 3 15 2 18 13 34 28 41 4 2 8 3 12 4 4 1 8 1 12 0 13 0 24-6 34-16 1-1 1-1 1-1 10-10 16-21 16-34 1-4 1-8 0-12-1-4-2-8-4-12-7-15-23-26-41-28-5-1-10-1-15-3-3-1-6-3-9-5-7-7-10-17-6-26 1-4 3-7 5-10 2-3 5-7 8-10 5-4 9-8 13-13 15-15 30-30 46-45 2-3 5-5 7-8 9-9 11-20 6-29 0-1-1-2-1-3-1-2-3-4-5-5-3-4-7-8-11-12-11-11-23-22-34-34-5-5-11-10-16-16l-1-1c-2-2-3-3-5-5 0 0-1-1-3-3l-2-2c-3-2-6-5-9-6-6-3-11-2-14 1-1 2-3 4-3 6-2 4-2 9-3 13-1 15-7 28-17 38-2 2-4 4-7 6z"/>
<glyph unicode="&#57399;" d="M224 128l64 0 0 64-64 0z m32 256c-48 0-96-48-96-96l64 0c0 16 16 32 32 32 16 0 32-16 32-32 0-32-64-32-64-64l64 0c32 11 64 32 64 80 0 48-48 80-96 80z m0 128c-141 0-256-115-256-256 0-142 115-256 256-256 142 0 256 114 256 256 0 141-114 256-256 256z m0-448c-106 0-192 86-192 192 0 106 86 192 192 192 106 0 192-86 192-192 0-106-86-192-192-192z"/>
<glyph unicode="&#57400;" d="M96 256l0-128 128 0 0 128-64 0c0 0 0 64 64 64l0 64c0 0-128 0-128-128z m320 64l0 64c0 0-128 0-128-128l0-128 128 0 0 128-64 0c0 0 0 64 64 64z"/>
<glyph unicode="&#57401;" d="M153 317c8 8 8 21 0 29-10 11-15 24-15 38 0 14 5 28 15 38 8 8 8 22 0 30-4 4-9 6-14 6-5 0-10-2-14-6-18-19-28-43-28-68 0-24 10-49 28-67 8-9 20-9 28 0z m-78 178c-5 5-10 7-15 7-5 0-11-2-15-7-30-30-45-71-45-111 0-40 15-80 45-111 8-8 21-8 30 0 8 8 8 22 0 30-22 23-33 52-33 81 0 30 11 59 33 81 8 9 8 22 0 30z m182-163c28 0 51 23 51 52 0 29-23 52-51 52-29 0-52-23-52-52 0-29 23-52 52-52z m210 163c-8 8-21 8-29 0-9-8-9-22 0-30 21-22 32-52 32-81 0-30-11-59-32-81-9-9-9-22 0-30 4-4 9-7 14-7 5 0 11 3 15 7 30 30 45 71 45 111 0 40-15 80-45 111z m-210-204c-14 0-27 3-39 9l-100-268 47 0 28 32 127 0 27-32 48 0-100 268c-12-6-25-9-38-9z m-1-16l33-115-64 0z m-63-179l32 32 64 0 31-32z m166 355c-8-8-8-21 0-29 10-11 15-24 15-38 0-14-5-28-15-38-8-8-8-22 0-30 4-4 9-6 14-6 5 0 10 2 14 6 18 19 28 43 28 68 0 24-10 49-28 67-8 9-20 9-28 0z"/>
<glyph unicode="&#57402;" d="M224 384l-32 0 0-32 32 0z m0 64l-32 0 0-32 32 0z m192 64c-16 0-304 0-320 0-16 0-32-16-32-32 0-16 0-368 0-384 0-16 16-32 32-32 16 0 64 0 64 0l0-64 48 48 48-48 0 64c0 0 144 0 160 0 16 0 32 16 32 32 0 16 0 368 0 384 0 16-16 32-32 32z m0-400c0-8-7-16-16-16-8 0-144 0-144 0l0 32-96 0 0-32c0 0-39 0-48 0-8 0-16 8-16 16 0 7 0 48 0 48l320 0c0 0 0-40 0-48z m0 80l-256 0 0 288 257 0z m-192 64l-32 0 0-32 32 0z m0 64l-32 0 0-32 32 0z"/>
<glyph unicode="&#57403;" d="M160 320l-32 0 0-32 32 0z m-64 160l128 0 0 32c0 0-176 0-192 0-16 0-32-16-32-32 0-16 0-368 0-384 0-16 16-32 32-32 16 0 64 0 64 0l0-64 48 48 48-48 0 64c0 0 143 0 160 0 17 0 32 16 32 32 0 16 0 96 0 96l-288 0z m256-320c0 0 0-40 0-48 0-9-7-16-16-16-9 0-144 0-144 0l0 32-96 0 0-32c0 0-40 0-48 0-8 0-16 8-16 16 0 8 0 48 0 48z m-192 224l-32 0 0-32 32 0z m-32-160l32 0 0 32-32 0z m352 288c-16 0-144 0-160 0-16 0-32-16-32-32 0-16 0-176 0-192 0-16 16-32 32-32 16 0 32 0 32 0l0-32 16 16 16-16 0 32c0 0 80 0 96 0 16 0 32 16 32 32 0 16 0 176 0 192 0 16-16 32-32 32z m-128-224c0 0-7 0-16 0-8 0-16 7-16 16 0 8 0 16 0 16l32 0z m128 16c0-8-7-16-16-16-8 0-80 0-80 0l0 32 96 0c0 0 0-8 0-16z m0 48l-128 0 0 128 112 0c0 0 16 0 16-16 0-16 0-112 0-112z m-320 96l-32 0 0-32 32 0z"/>
<glyph unicode="&#57404;" d="M448 480c0 16-16 32-32 32-16 0-304 0-320 0-16 0-32-16-32-32 0-16 0-384 0-384 0 0 0 16 0 0 0-16 16-32 32-32 16 0 64 0 64 0l0-64 64 64 0 64-64 0 0-32c0 0-39 0-48 0-8 0-16 7-16 16 0 8 0 48 0 48l128 0 0 32-64 0 0 288 256 0 0-288-64 0 0-32 64 0c0 0 0-40 0-48 0-8-7-16-16-16-8 0-48 0-48 0l0-32c0 0 48 0 64 0 16 0 32 16 32 32 0 16 0 368 0 384z m-136-160l72 0-96 128-96-128 72 0-72-96 64 0 0-224 64 0 0 224 64 0z"/>
<glyph unicode="&#57405;" d="M288 352l-96-128 64 0 0-224 64 0 0 224 64 0z m-96 0l32 0 0 32-32 0z m32 96l-32 0 0-32 32 0z m192 64c-16 0-304 0-320 0-16 0-32-16-32-32 0-16 0-368 0-384 0-16 16-32 32-32 16 0 64 0 64 0l0-64 64 64 0 64-64 0 0-32c0 0-39 0-48 0-8 0-16 7-16 16 0 9 0 48 0 48l128 0 0 32-64 0 0 288 257 0-1-288-64 0 0-32 64 0c0 0 0-40 0-48 0-9-7-16-16-16-8 0-48 0-48 0l0-32c0 0 48 0 64 0 16 0 32 16 32 32 0 16 0 368 0 384 0 16-16 32-32 32z"/>
<glyph unicode="&#57406;" d="M358 450c-36-21-74-48-109-83-22-23-40-45-55-65l-89-17-105-105 93-2 66 65c-23-48-25-80-25-80l29-29c0 0 33 3 82 27l-67-68 2-93 105 105 17 89c21 15 42 33 65 55 35 35 62 73 83 109-23 5-44 15-61 31-16 17-26 38-31 61z m35 19c3-23 10-41 22-53 13-13 31-20 54-23 33 67 43 119 43 119 0 0-52-10-119-43z"/>
<glyph unicode="&#57407;" d="M128 192c-35 0-64-29-64-64 0-35 29-64 64-64 35 0 64 29 64 64 0 35-29 64-64 64z m0 128c0 0-32-1-32-32 0-31 32-32 32-32 71 0 128-57 128-128 0 0 0-32 32-32 32 0 32 32 32 32 0 106-86 192-192 192z m0 128c0 0-32 0-32-32 0-32 32-32 32-32 141 0 256-115 256-256 0 0 0-32 32-32 32 0 32 32 32 32 0 177-143 320-320 320z"/>
<glyph unicode="&#57408;" d="M384 448l-256 0-128-128 256-256 256 256z m-320-128l96 96 192 0 96-96-192-192z m288 64l-96 0 0-224 160 160z"/>
<glyph unicode="&#57409;" d="M96 128l320 0 0 256-320 0z m64 192l192 0 0-128-192 0z m-96 96l96 0 0 32-128 0 0-128 32 0z m0-224l-32 0 0-128 128 0 0 32-96 0z m288 256l0-32 96 0 0-96 32 0 0 128z m96-352l-96 0 0-32 128 0 0 128-32 0z"/>
<glyph unicode="&#57410;" d="M96 416l-64 0 0-32 96 0 0 96-32 0z m-64-320l64 0 0-64 32 0 0 96-96 0z m384 320l0 64-32 0 0-96 96 0 0 32z m-32-384l32 0 0 64 64 0 0 32-96 0z m-256 128l256 0 0 192-256 0z m64 128l128 0 0-64-128 0z"/>
<glyph unicode="&#57411;" d="M493 96l-125 125c18 29 29 62 29 99 0 106-86 192-192 192-106 0-192-86-192-192 0-106 86-192 192-192 36 0 70 11 99 28l125-124c9-9 23-9 32 0l32 32c9 9 9 23 0 32z m-288 96c-71 0-128 57-128 128 0 71 57 128 128 128 70 0 128-57 128-128 0-71-58-128-128-128z"/>
<glyph unicode="&#57412;" d="M416 320l-320 0c-17 0-32-16-32-32l0-64c0-16 16-32 32-32l320 0c16 0 32 16 32 32l0 64c0 16-16 32-32 32z m-288-96l-32 0 0 64 32 0z m64 0l-32 0 0 64 32 0z m64 0l-32 0 0 64 32 0z m64 0l-32 0 0 64 32 0z m96-64l-320 0c-17 0-32-16-32-32l0-64c0-16 16-32 32-32l320 0c16 0 32 16 32 32l0 64c0 16-16 32-32 32z m-288-96l-32 0 0 64 32 0z m64 0l-32 0 0 64 32 0z m64 0l-32 0 0 64 32 0z m64 0l-32 0 0 64 32 0z m96 416l-320 0c-17 0-32-16-32-32l0-64c0-16 16-32 32-32l320 0c16 0 32 16 32 32l0 64c0 16-16 32-32 32z m-288-96l-32 0 0 64 32 0z m64 0l-32 0 0 64 32 0z m64 0l-32 0 0 64 32 0z m64 0l-32 0 0 64 32 0z m96 32l-32 0 0 32 32 0z"/>
<glyph unicode="&#57413;" d="M64 64l64 0 0 96-64 0z m64 384l-64 0 0-160 64 0z m160 0l-64 0 0-64 64 0z m-256-256l128 0 0 64-128 0z m192-128l64 0 0 192-64 0z m-32 224l128 0 0 64-128 0z m256 160l-64 0 0-192 64 0z m-96-224l0-64 128 0 0 64z m32-160l64 0 0 64-64 0z"/>
<glyph unicode="&#57414;" d="M352 224l0 64 128 0 0 64-128 0 0 64-96-72 0 72-128 64 256 0 0-96 32 0 0 128-352 0 0-416 192-96 0 96 160 0 0 160-32 0 0-128-128 0 0 168z"/>
<glyph unicode="&#57415;" d="M320 128l-128 0 0 288-128 64 256 0 0-96 32 0 0 128-352 0 0-416 192-96 0 96 160 0 0 160-32 0z m192 192l-128 96 0-64-128 0 0-64 128 0 0-64z"/>
<glyph unicode="&#57416;" d="M480 320l-157 20-67 140-67-140-157-20 115-104-29-152 138 74 139-74-30 152z"/>
<glyph unicode="&#57417;" d="M164 480c-38 0-68-50-68-112 0-34 9-71 17-127 7-44 23-81 51-81 28 0 47 24 47 69 0 15-12 39-13 60-1 37 25 52 25 86 0 62-21 105-59 105z m183-128c-37 0-58-43-58-105 0-34 25-49 24-86 0-21-13-45-13-60 0-45 19-69 47-69 29 0 45 37 51 81 9 56 17 93 17 127 0 62-30 112-68 112z"/>
<glyph unicode="&#57418;" d="M352 512l-192 0-160-160 0-192 160-160 192 0 160 160 0 192z m96-320l-128-128-128 0-128 128 0 128 128 128 128 0 128-128z m-224 32l64 0 0 160-64 0z m0-96l64 0 0 64-64 0z"/>
<glyph unicode="&#57419;" d="M392 275c6-41-7-84-39-115-47-47-119-52-173-17l38 36-138 19 19-134 42 40c76-55 183-50 251 18 40 39 58 91 56 142z m-233 77c47 46 119 52 173 17l-38-36 138-19-19 134-42-40c-76 55-183 50-251-18-40-39-58-91-56-142l56-11c-6 41 7 84 39 115z"/>
<glyph unicode="&#57420;" d="M224 480l-128 0-64-64 0-128 256-256 192 192z m-160-176l0 96 48 48 96 0 224-224-144-144z m192 48l-96-96 128-128 96 96z m-48-96l48 48 80-80-48-48z m-16 112c0 26-21 48-48 48-26 0-48-22-48-48 0-27 22-48 48-48 27 0 48 21 48 48z m-48-16c-9 0-16 7-16 16 0 9 7 16 16 16 9 0 16-7 16-16 0-9-7-16-16-16z"/>
<glyph unicode="&#57421;" d="M62 300c16 4 114 30 114 30 0-3-1-10-1-10 0-35 25-64 64-64 40 0 64 30 64 64 0 6-4 11-9 16l24-1c0 0 4 1 16 4-26-7-54 15-63 49-9 34 4 68 30 75-12-3-16-4-16-4l-84-55c-17-5-27-23-23-40 1-5 4-9 6-12-3-6-6-13-7-20-14 1-26 10-30 23-4 17 6 35 23 39l-123-32c-17-5-27-22-22-39 4-17 20-27 36-23z m209-76l-64 0 0-32-160-160 64 0 96 64 0-64 64 0 0 64 96-64 64 0-160 160z m215 224c-9 34-35 55-61 48-35-9-49-14-93-26-26-7-40-40-31-74 9-34 37-57 63-51 43 12 58 17 93 26 25 7 38 42 29 77z m-35-45c-9-3-21 8-26 25-4 17-2 33 7 35 8 2 21-8 25-25 5-17 2-33-6-35z"/>
<glyph unicode="&#57422;" d="M448 448l-384 0c-18 0-32-14-32-32l0-320c0-17 14-32 32-32l384 0c17 0 32 15 32 32l0 320c0 18-15 32-32 32z m-352-224l64 64-64 64 32 32 96-96-96-96z m256-32l-128 0 0 32 128 0z"/>
<glyph unicode="&#57423;" d="M64 416l0-64 384 0 0 64z m0-192l384 0 0 64-384 0z m0-128l384 0 0 64-384 0z"/>
<glyph unicode="&#57424;" d="M143 279c9-8 41-42 41-42l18 18-28 30 54 57c0 0-24 24-14 14 11 38 1 81-28 110-28 30-69 40-105 30l62-64-17-63-60-17-62 64c-10-38-1-79 28-109 30-31 73-40 111-28z m206-62l-74-73 123-128c10-10 23-15 36-15 13 0 27 5 37 15 20 21 20 55 0 76z m163 214l-78 81-231-239 28-29-138-143-32-16-44-73 11-12 70 46 17 33 138 143 28-30z"/>
<glyph unicode="&#57425;" d="M416 448l-128 0c0 0 0 12 0 16 0 9-7 16-16 16-9 0-16-7-16-16 0-9 0-16 0-16l-128 0c-18 0-32-14-32-32l0-32c0-18 14-32 32-32l0-288c0-18 14-32 32-32l224 0c18 0 32 14 32 32l0 288c18 0 32 14 32 32l0 32c0 18-14 32-32 32z m-32-368c0-9-7-16-16-16l-192 0c-9 0-16 7-16 16l0 272 32 0 0-240c0-9 7-16 16-16 9 0 16 7 16 16l0 240 32 0 0-240c0-9 7-16 16-16 9 0 16 7 16 16l0 240 32 0 0-240c0-9 7-16 16-16 9 0 16 7 16 16l0 240 32 0z m32 312c0-4-4-8-8-8l-272 0c-4 0-8 4-8 8l0 16c0 4 4 8 8 8l272 0c4 0 8-4 8-8z"/>
<glyph unicode="&#57426;" d="M64 320l192-192 192 192z"/>
<glyph unicode="&#57427;" d="M256 384l-192-192 384 0z"/>
<glyph unicode="&#57428;" d="M224 320l64 0 0 96 64 0-96 96-96-96 64 0z m96 64l0-32 112 0-64-64-224 0-64 64 112 0 0 32-160 0 0-32 80-80-80-80 0-32 160 0 0 32-112 0 64 64 224 0 64-64-112 0 0-32 160 0 0 32-80 80 80 80 0 32z m-32-160l-64 0 0-96-64 0 96-96 96 96-64 0z"/>
<glyph unicode="&#57429;" d="M96 320l-64 0 0-128 64 0 128-96 32 0 0 320-32 0z m205-19c-6 7-16 7-22 0-7-6-7-16 0-22 12-13 12-33 0-46-7-6-7-16 0-22 6-7 16-7 22 0 25 25 25 65 0 90z m46 46c-7 6-17 6-23 0-6-7-6-17 0-23 37-38 37-98 0-136-6-6-6-16 0-23 6-6 16-6 23 0 49 50 49 132 0 182z m45 45c-6 6-17 6-23 0-6-6-6-17 0-23 63-62 63-164 0-226-6-6-6-17 0-23 6-6 17-6 23 0 75 75 75 197 0 272z"/>
<glyph unicode="&#57430;" d="M32 160l64 0 0 32-32 0 0 128 32 0 0 32-64 0z m192 256l0-320 256 0 0 320z m192-256l-128 0 0 192 128 0z m-288-32l64 0 0 32-32 0 0 192 32 0 0 32-64 0z"/>
<glyph unicode="&#57431;" d="M416 352l-64 64-96-96-96 96-64-64 96-96-96-96 64-64 96 96 96-96 64 64-96 96z"/>
<glyph unicode="&#57432;" d="M416 288l-128 0 96 224-288-288 128 0-96-224z"/>
<glyph unicode="&#57433;" d="M224 384l-128 128-96-96 156-150c7 40 21 68 66 115l3 3z m64 128l67-67-99-98c-49-50-64-81-64-155l0-192 128 0 0 192c0 26 10 47 27 64l98 99 67-67 0 225-224 0z"/>
<glyph unicode="&#57434;" d="M384 480c-71 0-128-42-128-93 0-62 16-98 0-195 0 144-88 203-128 203 2 16-15 21-15 21 0 0-7-4-10-11-9 10-18 9-18 9l-4-19c0 0-59-20-60-103 7-11 50-19 80-14 29-1 21-25 15-31-27-27-52 9-84 9-32 0-32-32 0-32 32 0 32-32 96-32-99-39 0-128 0-128l-32 0c-32 0-32-32-32-32 0 0 128 0 192 0 96 0 160 32 160 111 0 27-14 57-32 81-35 47 7 86 32 64 25-22 96-32 96 64 0 71-57 128-128 128z m-304-160c-9 0-16 7-16 16 0 9 7 16 16 16 9 0 16-7 16-16 0-9-7-16-16-16z"/>
<glyph unicode="&#57435;" d="M160 256l192-192 0 384z"/>
<glyph unicode="&#57436;" d="M160 448l192-192-192-192z"/>
<glyph unicode="&#57437;" d="M512 352l-96 96 0-64-192 0 0-64 192 0 0-64z m-160-160l-256 0 0 288 256 0 0-64 32 0c0 0 0 48 0 64 0 16-16 32-32 32-16 0-304 0-320 0-16 0-32-16-32-32 0-16 0-368 0-384 0-16 16-32 32-32 16 0 64 0 64 0l0-64 48 48 48-48 0 64c0 0 144 0 160 0 16 0 32 16 32 32 0 16 0 192 0 192l-32 0z m0-80c0-8-7-16-16-16-8 0-144 0-144 0l0 32-96 0 0-32c0 0-39 0-48 0-8 0-16 8-16 16 0 8 0 48 0 48l320 0c0 0 0-41 0-48z m-192 272l-32 0 0-32 32 0z m0 64l-32 0 0-32 32 0z m0-128l-32 0 0-32 32 0z m-32-96l32 0 0 32-32 0z"/>
<glyph unicode="&#57438;" d="M256 512c-141 0-256-115-256-256 0-113 73-209 175-243 13-2 18 6 18 12 0 6-1 27-1 48-71-15-86 30-86 30-12 30-28 38-28 38-24 16 1 15 1 15 26-2 40-26 40-26 22-39 59-28 74-21 2 16 9 27 16 34-57 6-116 28-116 126 0 28 10 51 26 69-3 7-11 33 3 68 0 0 21 7 70-26 20 5 42 8 64 8 22 0 44-3 64-8 49 33 70 26 70 26 14-35 6-61 3-68 16-18 26-41 26-69 0-98-60-120-117-126 10-8 18-24 18-47 0-35-1-62-1-71 0-6 5-14 18-12 102 34 175 130 175 243 0 141-115 256-256 256z"/>
<glyph unicode="&#97;" d="M64 256l64 64 96-96 192 192 64-64-256-256z"/>
<glyph unicode="&#98;" d="M416 512l0-32-32 0 0-32 32 0 0-448-384 0c0 0-32 0-32 32l0 432c0 0 0 0 0 0-1 22 13 37 25 42 12 6 22 6 23 6l368 0m-368-64c0 0 0 0 0 0l304 0 0 32-304 0c0 0 0 0-2 0-2-1-5-1-7-2-4-3-6-4-7-14 0-8 2-10 4-12 3-2 7-3 10-4 1 0 2 0 2 0m16-416l320 0 0 384-320 0 0-384m160 192c35 0 64 29 64 64 0 35-29 64-64 64-35 0-64-29-64-64 0-35 29-64 64-64z m96-32l-192 0c0 0-32 0-32-32l0-96 256 0 0 96c0 0 0 32-32 32z"/>
<glyph unicode="&#99;" d="M384 64c0 35 29 64 64 64 35 0 64-29 64-64 0-35-29-64-64-64-35 0-64 29-64 64z m32 0c0-18 14-32 32-32 18 0 32 14 32 32 0 18-14 32-32 32-18 0-32-14-32-32z m-416 384c0 35 29 64 64 64 35 0 64-29 64-64 0-35-29-64-64-64-35 0-64 29-64 64z m32 0c0-18 14-32 32-32 18 0 32 14 32 32 0 18-14 32-32 32-18 0-32-14-32-32z m416-64c35 0 64 29 64 64 0 35-29 64-64 64-35 0-64-29-64-64 0-12 3-23 9-32l-51-52c-26 12-54 20-86 20-123-1-204-117-205-118l-7-9 7-10c1 0 34-48 90-83l-45-45c-9 6-20 9-32 9-35 0-64-29-64-64 0-35 29-64 64-64 35 0 64 29 64 64 0 12-3 23-9 32l52 52c25-12 53-20 85-20 123 1 204 118 205 119l7 9-7 9c-1 1-34 49-90 83l45 45c9-6 20-9 32-9z m-26-121c2-3 4-5 6-7-2-2-4-4-6-7-27-30-90-90-166-89-50 0-95 26-128 53-16 13-29 27-38 37-2 2-4 5-6 7 2 2 4 4 6 6 27 31 90 90 166 89 50 0 95-26 128-52 16-14 29-27 38-37z m-102-7c0-35-29-64-64-64-35 0-64 29-64 64 0 35 29 64 64 64 35 0 64-29 64-64z"/>
<glyph unicode="&#100;" d="M0 416l224 0 0-128-64 0 0-64 64 0 0-128-224 0z m320-192l-64 0 0 64 64 0 0 64 192 0 0-192-192 0z"/>
<glyph unicode="&#101;" d="M352 384c-37 0-63-16-79-30 7 67 47 94 47 94l-32 16c0 0-41-41-47-111-16 14-42 31-81 31-64 0-112-48-96-144 21-126 80-176 128-176 32 0 64 32 64 32 0 0 32-32 64-32 48 0 107 50 128 176 16 96-32 144-96 144z"/>
<glyph unicode="&#102;" d="M512 288l0 32-162 0c21 20 34 49 34 80 0 62-50 112-112 112-62 0-112-50-112-112 0-60 47-108 106-112l-65-64-201 0 0-32 162 0c-21-20-34-49-34-80 0-62 50-112 112-112 62 0 112 50 112 112 0 60-47 108-106 112l65 64z m-320 112c0 44 36 80 80 80 44 0 80-36 80-80l0 0c0-44-36-80-80-80-44 0-80 36-80 80z m128-288c0-44-36-80-80-80-44 0-80 36-80 80 0 44 36 80 80 80 44 0 80-36 80-80z"/>
<glyph unicode="&#103;" d="M480 256l-128 0 0 224-192 0 0-224-128 0 224-224z"/>
<glyph unicode="&#104;" d="M256 480l0-128 224 0 0-192-224 0 0-128-224 224z"/>
<glyph unicode="&#105;" d="M64 384l96-96 160 160 128-128-160-160 96-96-320 0z"/>
<glyph unicode="&#106;" d="M448 384l-96-96-160 160-128-128 160-160-96-96 320 0z"/>
<glyph unicode="&#107;" d="M256 480l0-128-224 0 0-192 224 0 0-128 224 224z"/>
<glyph unicode="&#108;" d="M32 256l128 0 0-224 192 0 0 224 128 0-224 224z"/>
<glyph unicode="&#57439;" d="M64 128l96 96 160-160 128 128-160 160 96 96-320 0z"/>
<glyph unicode="&#57440;" d="M448 128l-96 96-160-160-128 128 160 160-96 96 320 0z"/>
<glyph unicode="&#57441;" d="M32 352l224-224 224 224z"/>
<glyph unicode="&#57442;" d="M352 480l-224-224 224-224z"/>
<glyph unicode="&#57443;" d="M64 384l0-320 320 0z"/>
<glyph unicode="&#57444;" d="M448 384l0-320-320 0z"/>
<glyph unicode="&#57445;" d="M160 480l224-224-224-224z"/>
<glyph unicode="&#57446;" d="M480 160l-224 224-224-224z"/>
<glyph unicode="&#57447;" d="M64 128l0 320 320 0z"/>
<glyph unicode="&#57448;" d="M448 128l0 320-320 0z"/>
<glyph unicode="&#57449;" d="M112 192c-1 0-27 0-55 14-28 13-58 44-57 98-1 54 29 85 57 98 28 14 54 14 55 14 0 0 320 0 352 0 22 1 37-13 42-25 6-12 6-22 6-23l0-64c0-1 0-11-6-23-5-12-20-26-42-25-32 0-288 0-288 0-22-1-37 13-42 25-6 12-6 22-6 23-1 22 13 37 25 42 12 6 22 6 23 6l256 0 0-32-256 0c0 0 0 0-2 0-2-1-5-1-7-2-4-3-6-4-7-14 0 0 0 0 0-2 1-2 1-5 2-7 3-4 4-6 14-7 0 0 256 0 288 0 8 0 10 2 12 4 2 3 3 7 4 10 0 1 0 2 0 2l0 64c0 0 0 0 0 2-1 2-1 5-2 7-3 4-4 6-14 7-32 0-352 0-352 0 0 0-5 0-12-1-8-2-19-4-29-9-20-11-38-28-39-70 0-32 11-49 25-60 13-12 31-17 43-19 7-1 12-1 12-1l352 0 0-32z"/>
<glyph unicode="&#57450;" d="M458 256l6 0c22-1 37 13 42 25 6 12 6 22 6 23l0 64c0 1 0 11-6 23-5 12-20 26-42 25-32 0-352 0-352 0-1 0-27 0-55-14-28-13-58-44-57-98-1-54 29-85 57-98 28-14 54-14 55-14l120 0c-5-15-8-31-8-48 0-80 64-144 144-144 80 0 144 64 144 144 0 45-21 86-54 112z m-346-32c0 0-5 0-12 1-12 2-30 7-43 19-14 11-25 28-25 60 1 42 19 59 39 70 10 5 21 7 29 9 7 1 12 1 12 1 0 0 320 0 352 0 10-1 11-3 14-7 1-2 1-5 2-7 0-2 0-2 0-2l0-64c0 0 0-1 0-2-1-3-2-7-4-10-2-2-4-4-12-4-11 0-50 0-96 0 0 0 0 0 0 0 0 0 0 0 0 0-84 0-192 0-192 0-10 1-11 3-14 7-1 2-1 5-2 7 0 1 0 2 0 2 1 10 3 11 7 14 2 1 5 1 7 2 2 0 2 0 2 0l256 0 0 32-256 0c-1 0-11 0-23-6-12-5-26-20-25-42 0-1 0-11 6-23 5-12 20-26 42-25 0 0 46 0 102 0-12-9-22-20-30-32z m256-190c-61 0-110 49-110 110 0 61 49 110 110 110 61 0 110-49 110-110 0-61-49-110-110-110z m80 126l-64 0 0 64-32 0 0-64-64 0 0-32 64 0 0-64 32 0 0 64 64 0z"/>
<glyph unicode="&#57451;" d="M458 256l6 0c22-1 37 13 42 25 6 12 6 22 6 23l0 64c0 1 0 11-6 23-5 12-20 26-42 25-32 0-352 0-352 0-1 0-27 0-55-14-28-13-58-44-57-98-1-54 29-85 57-98 28-14 54-14 55-14l120 0c-5-15-8-31-8-48 0-80 64-144 144-144 80 0 144 64 144 144 0 45-21 86-54 112z m-346-32c0 0-5 0-12 1-12 2-30 7-43 19-14 11-25 28-25 60 1 42 19 59 39 70 10 5 21 7 29 9 7 1 12 1 12 1 0 0 320 0 352 0 10-1 11-3 14-7 1-2 1-5 2-7 0-2 0-2 0-2l0-64c0 0 0-1 0-2-1-3-2-7-4-10-2-2-4-4-12-4-11 0-50 0-96 0 0 0 0 0 0 0 0 0 0 0 0 0-84 0-192 0-192 0-10 1-11 3-14 7-1 2-1 5-2 7 0 1 0 2 0 2 1 10 3 11 7 14 2 1 5 1 7 2 2 0 2 0 2 0l256 0 0 32-256 0c-1 0-11 0-23-6-12-5-26-20-25-42 0-1 0-11 6-23 5-12 20-26 42-25 0 0 46 0 102 0-12-9-22-20-30-32z m256-190c-61 0-110 49-110 110 0 61 49 110 110 110 61 0 110-49 110-110 0-61-49-110-110-110z m64 126l-128 0 64-64z"/>
<glyph unicode="&#57452;" d="M352 80l-48 0 0 48z m96 96l-80-80-48 48 80 80z m-80 176c0 0-16 32-48 32-32 0-48-32-48-32 0 0 32 0 48 0 16 0 48 0 48 0z m-176 32c-32 0-48-32-48-32 0 0 32 0 48 0 16 0 48 0 48 0 0 0-16 32-48 32z m311-190c-16 44-54 78-100 90 8 35 13 72 13 110 0 28-8 55-22 78l-7 13-13-7c0 0-9-4-22-9-24 26-58 43-96 43-38 0-72-17-96-43-13 5-22 9-22 9l-13 7-8-13c-13-23-21-50-21-78 0-60 11-120 30-170-55 0-62 0-62 0 0 0-64-3-64-64 0-32 0-160 0-160l512 0 0 160c0 0 0 17-9 34z m-269 1c-7-16-10-33-10-51 0-2 0-4 0-6-20 13-39 36-56 69-24 50-40 119-40 187 0 17 4 34 10 49 24-10 74-30 118-30 44 0 94 20 117 30 7-15 11-32 11-49 0-37-5-73-13-106-1 0-2 0-3 0-42 0-80-18-107-48-2 0-3 0-5 0-32 0-80 16-80 16 0 0 12-48 58-61z m134-161c-61 0-110 49-110 110 0 61 49 110 110 110 61 0 110-49 110-110 0-61-49-110-110-110z"/>
<glyph unicode="&#57453;" d="M368 352c0 0-16 32-48 32-32 0-48-32-48-32 0 0 32 0 48 0 16 0 48 0 48 0z m-176 32c-32 0-48-32-48-32 0 0 32 0 48 0 16 0 48 0 48 0 0 0-16 32-48 32z m311-190c-16 44-54 78-100 90 8 35 13 72 13 110 0 28-8 55-22 78l-7 13-13-7c0 0-9-4-22-9-24 26-58 43-96 43-38 0-72-17-96-43-13 5-22 9-22 9l-13 7-8-13c-13-23-21-50-21-78 0-60 11-120 30-170-55 0-62 0-62 0 0 0-64-3-64-64 0-32 0-160 0-160l512 0 0 160c0 0 0 17-9 34z m-269 1c-7-16-10-33-10-51 0-2 0-4 0-6-20 13-39 36-56 69-24 50-40 119-40 187 0 17 4 34 10 49 24-10 74-30 118-30 44 0 94 20 117 30 7-15 11-32 11-49 0-37-5-73-13-106-1 0-2 0-3 0-42 0-80-18-107-48-2 0-3 0-5 0-32 0-80 16-80 16 0 0 12-48 58-61z m134-161c-61 0-110 49-110 110 0 61 49 110 110 110 61 0 110-49 110-110 0-61-49-110-110-110z m-16 30l32 0 0 96-32 0z m0 160l0-32 32 0 0 32z"/>
<glyph unicode="&#57454;" d="M32 288l0 224 448 0 0-224z m416 32l0 160-384 0 0-160z m-416-192l0-128 448 0 0 128z m96-96l-64 0 0 32 64 0z m-32 416l0-96 320 0 0 96z m96-64l-64 0 0 32 64 0z m-160-224l192 0-96 96z m256 0l192 0-96 96z"/>
<glyph unicode="&#57455;" d="M480 512l-448 0 0-224 448 0z m-32-192l-384 0 0 160 384 0z m-32 128l-320 0 0-96 320 0z m-224-64l-64 0 0 32 64 0z m-64-128l-96-96 192 0z m240 32c-80 0-144-64-144-144 0-5 0-11 1-16-64 0-193 0-193 0l0-128 448 0 0 54c20 24 32 56 32 90 0 80-64 144-144 144z m-240-256l-64 0 0 32 64 0z m240 2c-61 0-110 49-110 110 0 61 49 110 110 110 61 0 110-49 110-110 0-61-49-110-110-110z m16 158l32 0 0-96-32 0z m-64 0l32 0 0-96-32 0z"/>
<glyph unicode="&#57456;" d="M480 512l-448 0 0-224 448 0z m-32-192l-384 0 0 160 384 0z m-32 128l-320 0 0-96 320 0z m-224-64l-64 0 0 32 64 0z m-64-128l-96-96 192 0z m240 32c-80 0-144-64-144-144 0-5 0-11 1-16-64 0-193 0-193 0l0-128 448 0 0 54c20 24 32 56 32 90 0 80-64 144-144 144z m-240-256l-64 0 0 32 64 0z m240 2c-61 0-110 49-110 110 0 61 49 110 110 110 61 0 110-49 110-110 0-61-49-110-110-110z m-16 174l0-128 64 64z"/>
<glyph unicode="&#57457;" d="M480 512l-448 0 0-224 448 0z m-32-192l-384 0 0 160 384 0z m-32 128l-320 0 0-96 320 0z m-224-64l-64 0 0 32 64 0z m-64-128l-96-96 192 0z m240 32c-80 0-144-64-144-144 0-5 0-11 1-16-64 0-193 0-193 0l0-128 448 0 0 54c20 24 32 56 32 90 0 80-64 144-144 144z m-240-256l-64 0 0 32 64 0z m240 2c-61 0-110 49-110 110 0 61 49 110 110 110 61 0 110-49 110-110 0-61-49-110-110-110z m80 94l0 32-27 0c-1 3-2 7-4 10l19 19-22 22-19-18c-3 2-7 3-11 4l0 27-32 0 0-27c-4-1-7-2-10-4l-19 18-22-22 18-19c-2-3-3-6-4-10l-27 0 0-32 27 0c1-4 2-8 4-11l-18-19 22-22 19 19c3-2 7-3 10-4l0-27 32 0 0 27c4 1 7 2 10 4l20-19 22 22-19 20c2 3 3 6 4 10z m-80-8c-13 0-24 11-24 24 0 13 11 24 24 24 13 0 24-11 24-24 0-13-11-24-24-24z"/>
<glyph unicode="&#57458;" d="M480 512l-448 0 0-224 448 0z m-32-192l-384 0 0 160 384 0z m-32 128l-320 0 0-96 320 0z m-224-64l-64 0 0 32 64 0z m-64-128l-96-96 192 0z m240 32c-80 0-144-64-144-144 0-5 0-11 1-16-64 0-193 0-193 0l0-128 448 0 0 54c20 24 32 56 32 90 0 80-64 144-144 144z m-240-256l-64 0 0 32 64 0z m240 2c-61 0-110 49-110 110 0 61 49 110 110 110 61 0 110-49 110-110 0-61-49-110-110-110z m-48 158l96 0 0-96-96 0z"/>
<glyph unicode="&#57459;" d="M224 144c0 80 64 144 144 144 80 0 144-64 144-144 0-80-64-144-144-144-80 0-144 64-144 144z m34 0c0-61 49-110 110-110 61 0 110 49 110 110 0 61-49 110-110 110-61 0-110-49-110-110z m30 0l32 32 32-32 64 64 32-32-96-96z"/>
<glyph unicode="&#57460;" d="M224 144c0 80 64 144 144 144 80 0 144-64 144-144 0-80-64-144-144-144-80 0-144 64-144 144z m34 0c0-61 49-110 110-110 61 0 110 49 110 110 0 61-49 110-110 110-61 0-110-49-110-110z m46-32l32-32 32 32 32-32 32 32-32 32 32 32-32 32-32-32-32 32-32-32 32-32z"/>
<glyph unicode="&#57461;" d="M224 144c0 80 64 144 144 144 80 0 144-64 144-144 0-80-64-144-144-144-80 0-144 64-144 144z m34 0c0-61 49-110 110-110 61 0 110 49 110 110 0 61-49 110-110 110-61 0-110-49-110-110z m174 16l-128 0 64-64z"/>
<glyph unicode="&#57462;" d="M224 144c0 80 64 144 144 144 80 0 144-64 144-144 0-80-64-144-144-144-80 0-144 64-144 144z m34 0c0-61 49-110 110-110 61 0 110 49 110 110 0 61-49 110-110 110-61 0-110-49-110-110z m94-64l-48 0 0 48z m96 96l-80-80-48 48 80 80z"/>
<glyph unicode="&#57463;" d="M224 144c0 80 64 144 144 144 80 0 144-64 144-144 0-80-64-144-144-144-80 0-144 64-144 144z m34 0c0-61 49-110 110-110 61 0 110 49 110 110 0 61-49 110-110 110-61 0-110-49-110-110z m46 16l128 0-64 64z m0-32l128 0 0-32-128 0z"/>
<glyph unicode="&#57464;" d="M352 64l32 0 0 96-32 0z m0 160l0-32 32 0 0 32z m-128-80c0 80 64 144 144 144 80 0 144-64 144-144 0-80-64-144-144-144-80 0-144 64-144 144z m34 0c0-61 49-110 110-110 61 0 110 49 110 110 0 61-49 110-110 110-61 0-110-49-110-110z"/>
<glyph unicode="&#57465;" d="M224 144c0 80 64 144 144 144 80 0 144-64 144-144 0-80-64-144-144-144-80 0-144 64-144 144z m34 0c0-61 49-110 110-110 61 0 110 49 110 110 0 61-49 110-110 110-61 0-110-49-110-110z m30 16l160 0 0-32-160 0z"/>
<glyph unicode="&#57466;" d="M224 144c0 80 64 144 144 144 80 0 144-64 144-144 0-80-64-144-144-144-80 0-144 64-144 144z m34 0c0-61 49-110 110-110 61 0 110 49 110 110 0 61-49 110-110 110-61 0-110-49-110-110z m126 48l32 0 0-96-32 0z m-64 0l32 0 0-96-32 0z"/>
<glyph unicode="&#57467;" d="M224 144c0 80 64 144 144 144 80 0 144-64 144-144 0-80-64-144-144-144-80 0-144 64-144 144z m34 0c0-61 49-110 110-110 61 0 110 49 110 110 0 61-49 110-110 110-61 0-110-49-110-110z m190 16l-64 0 0 64-32 0 0-64-64 0 0-32 64 0 0-64 32 0 0 64 64 0z"/>
<glyph unicode="&#57468;" d="M224 144c0 80 64 144 144 144 80 0 144-64 144-144 0-80-64-144-144-144-80 0-144 64-144 144z m34 0c0-61 49-110 110-110 61 0 110 49 110 110 0 61-49 110-110 110-61 0-110-49-110-110z m94 64l0-128 64 64z"/>
<glyph unicode="&#57469;" d="M224 144c0 80 64 144 144 144 80 0 144-64 144-144 0-80-64-144-144-144-80 0-144 64-144 144z m34 0c0-61 49-110 110-110 61 0 110 49 110 110 0 61-49 110-110 110-61 0-110-49-110-110z m160 16c0 2 1 4 1 7-1 10-2 23-9 36-8 12-23 21-42 21-19 0-34-9-42-21-7-13-9-26-9-36 0-3 1-5 1-7l-14 0 0-80 128 0 0 80z m-69 7c0 7 2 15 4 19 3 3 5 6 15 6 10 0 12-3 14-6 3-4 5-12 5-19 0-3-1-5-1-7l-36 0c0 2-1 4-1 7z"/>
<glyph unicode="&#57470;" d="M224 144c0 80 64 144 144 144 80 0 144-64 144-144 0-80-64-144-144-144-80 0-144 64-144 144z m34 0c0-61 49-110 110-110 61 0 110 49 110 110 0 61-49 110-110 110-61 0-110-49-110-110z m190-16l0 32-27 0c-1 3-2 7-4 10l19 19-22 22-19-18c-3 2-7 3-11 4l0 27-32 0 0-27c-4-1-7-2-10-4l-19 18-22-22 18-19c-2-3-3-6-4-10l-27 0 0-32 27 0c1-4 2-8 4-11l-18-19 22-22 19 19c3-2 7-3 10-4l0-27 32 0 0 27c4 1 7 2 10 4l20-19 22 22-19 20c2 3 3 6 4 10z m-80-8c-13 0-24 11-24 24 0 13 11 24 24 24 13 0 24-11 24-24 0-13-11-24-24-24z"/>
<glyph unicode="&#57471;" d="M224 144c0 80 64 144 144 144 80 0 144-64 144-144 0-80-64-144-144-144-80 0-144 64-144 144z m34 0c0-61 49-110 110-110 61 0 110 49 110 110 0 61-49 110-110 110-61 0-110-49-110-110z m62 48l96 0 0-96-96 0z"/>
<glyph unicode="&#57472;" d="M224 144c0 80 64 144 144 144 80 0 144-64 144-144 0-80-64-144-144-144-80 0-144 64-144 144z m34 0c0-61 49-110 110-110 61 0 110 49 110 110 0 61-49 110-110 110-61 0-110-49-110-110z m46-16l128 0-64 64z"/>
<glyph unicode="&#57473;" d="M256 512c-141 0-256-115-256-256 0-141 115-256 256-256 141 0 256 115 256 256 0 141-115 256-256 256z m-224-256c0 59 23 113 61 153 3-4 6-10 9-17l-16-9 15-28 13 7c0-2 1-5 2-8l-15-4 9-30 13 3c0-2 1-5 1-7l-15-1 3-32 15 1c0-4 1-8 1-12l-16 0 0-32 16 0c0-4-1-8-1-12l-15 1-3-32 15-1c0-2-1-5-1-7l-14 4-8-31 15-4c-1-3-2-6-2-8l-13 7-16-28 17-9c-3-7-6-13-9-17-38 40-61 94-61 153z m85-175c4 5 8 13 13 23l16-9 16 27-20 12c2 4 3 10 5 15l19-5 9 31-21 5c0 5 1 9 2 13l19-1 2 32-18 1c0 5 0 10 1 15l16 0 0 32-16 0c-1 5-1 10-1 15l18 1-2 32-19-2c-1 5-2 9-2 14l21 5-9 31-19-5c-2 5-3 10-5 15l20 12-16 27-16-9c-5 10-9 18-13 23 38 31 86 49 139 49 53 0 101-18 139-49-4-5-8-13-13-23l-16 9-16-27 20-12c-2-5-3-10-5-15l-20 5-8-31 21-5c-1-5-1-9-2-14l-19 2-2-32 18-1c0-5 0-10-1-15l-16 0 0-32 16 0c1-5 1-10 1-15l-18-1 2-32 19 1c1-4 1-8 2-13l-21-5 9-31 19 5c2-5 3-11 5-15l-20-12 16-27 16 9c5-10 9-18 13-23-38-31-86-49-139-49-53 0-101 18-139 49z m302 22c-3 4-6 10-9 17l17 9-16 28-13-7c0 2-1 5-2 8l15 4-8 31-14-4c0 2-1 5-1 7l15 1-3 32-15-1c0 4-1 8-1 12l16 0 0 32-16 0c0 4 1 8 1 12l15-1 3 32-15 1c0 2 1 5 1 7l13-3 9 30-15 4c1 3 2 6 2 8l13-7 15 28-16 9c3 7 6 13 9 17 38-40 61-94 61-153 0-59-23-113-61-153z"/>
<glyph unicode="&#57474;" d="M437 437c-48 48-113 75-181 75-68 0-133-27-181-75-48-48-75-113-75-181 0-68 27-133 75-181 48-48 113-75 181-75 68 0 133 27 181 75 48 48 75 113 75 181 0 68-27 133-75 181z m-197-404c-46 3-89 20-124 49l68 49c16 12 36 19 56 23z m32 122c24-1 48-8 66-21l65-47c-37-32-82-51-131-54z m84 5c-23 17-53 26-84 27l0 53 207 0c-3-48-22-93-53-130z m-84 112l0 53c29 3 58 13 81 30l70 50c33-37 53-83 56-133z m-32 85c-22 2-43 9-60 21l-68 49c36 31 81 49 128 52z m32 122c47-3 91-21 127-51l-64-47c-18-13-40-21-63-23z m-183-75l73-52c22-16 49-25 78-27l0-53-207 0c3 49 23 95 56 132z m-56-164l207 0 0-54c-27-4-53-13-75-29l-73-53c-35 38-56 85-59 136z"/>
<glyph unicode="&#57475;" d="M384 320l64 0 0-128-64 0z m-320 64l0-64-64 0 0-128 64 0 0-64 448 0 0 256z m32-224l0 192 384 0 0-192z"/>
<glyph unicode="&#57476;" d="M320 320l128 0 0-128-128 0z m-256 64l0-64-64 0 0-128 64 0 0-64 448 0 0 256z m32-224l0 192 384 0 0-192z"/>
<glyph unicode="&#57477;" d="M256 320l192 0 0-128-192 0z m-192 64l0-64-64 0 0-128 64 0 0-64 448 0 0 256z m32-224l0 192 384 0 0-192z"/>
<glyph unicode="&#57478;" d="M192 320l256 0 0-128-256 0z m-128 64l0-64-64 0 0-128 64 0 0-64 448 0 0 256z m32-224l0 192 384 0 0-192z"/>
<glyph unicode="&#57479;" d="M384 320l-64 0-32-32-32 32-64 0 64-64-64-64 64 0 32 32 32-32 64 0-64 64z m-320 64l0-64-64 0 0-128 64 0 0-64 448 0 0 256z m32-224l0 192 384 0 0-192z"/>
<glyph unicode="&#57480;" d="M448 320l-320 0 0-128 320 0z m-384 64l0-64-64 0 0-128 64 0 0-64 448 0 0 256z m416-224l-384 0 0 192 384 0z"/>
<glyph unicode="&#57481;" d="M64 384l0-64-64 0 0-128 64 0 0-64 448 0 0 256z m32-224l0 192 384 0 0-192z m352 112l0 32-64 0 0 16-128 0 0-32-128 0 0-64 128 0 0-32 128 0 0 16 64 0 0 32-64 0 0 32z"/>
<glyph unicode="&#57482;" d="M448 352l0-80c0 27-29 48-64 48-35 0-64-21-64-48 0 27-75 48-128 48-53 0-128-21-128-48l0 48-32 0 0-192 32 0 0 64 384 0 0-64 32 0 0 224z"/>
<glyph unicode="&#57483;" d="M416 512l0-32-32 0 0-32 32 0 0-448-384 0c0 0-32 0-32 32l0 432c0 0 0 0 0 0-1 22 13 37 25 42 12 6 22 6 23 6l368 0m-368-64c0 0 0 0 0 0l304 0 0 32-304 0c0 0 0 0-2 0-2-1-5-1-7-2-4-3-6-4-7-14 0-8 2-10 4-12 3-2 7-3 10-4 1 0 2 0 2 0m16-416l320 0 0 384-320 0 0-384m256 300l-160 40 0-119c-5 2-10 3-16 3-27 0-48-22-48-48 0-26 21-48 48-48 26 0 48 22 48 48l0 124 96-24 0-87c-5 2-10 3-16 3-27 0-48-22-48-48 0-26 21-48 48-48 26 0 48 22 48 48z"/>
<glyph unicode="&#57484;" d="M512 144c0 63-40 116-96 136l0 168-32 0 0 32 32 0 0 32-368 0c-1 0-11 0-23-6-12-5-26-20-25-42 0 0 0 0 0 0l0-432c0-32 32-32 32-32l337 0 0 0c79 1 143 65 143 144z m-466 304c-3 1-7 2-10 4-2 2-4 4-4 12 1 10 3 11 7 14 2 1 5 1 7 2 2 0 2 0 2 0l304 0 0-32-304 0c0 0 0 0-2 0z m18-416l0 384 320 0 0-129c-5 1-11 1-16 1-17 0-33-3-48-8l0 52-160 40 0-119c-5 2-10 3-16 3-27 0-48-22-48-48 0-27 21-48 48-48 26 0 48 21 48 48l0 123 96-24 0-43c-39-26-64-70-64-120 0-45 21-86 54-112l-214 0z m304 0c-62 0-112 50-112 112 0 62 50 112 112 112 62 0 112-50 112-112 0-62-50-112-112-112z m80 128l-64 0 0 64-32 0 0-64-64 0 0-32 64 0 0-64 32 0 0 64 64 0z"/>
<glyph unicode="&#57485;" d="M512 144c0 63-40 116-96 136l0 168-32 0 0 32 32 0 0 32-368 0c-1 0-11 0-23-6-12-5-26-20-25-42 0 0 0 0 0 0l0-432c0-32 32-32 32-32l337 0 0 0c79 1 143 65 143 144z m-466 304c-3 1-7 2-10 4-2 2-4 4-4 12 1 10 3 11 7 14 2 1 5 1 7 2 2 0 2 0 2 0l304 0 0-32-304 0c0 0 0 0-2 0z m18-416l0 384 320 0 0-129c-5 1-11 1-16 1-17 0-33-3-48-8l0 52-160 40 0-119c-5 2-10 3-16 3-27 0-48-22-48-48 0-27 21-48 48-48 26 0 48 21 48 48l0 123 96-24 0-43c-39-26-64-70-64-120 0-45 21-86 54-112l-214 0z m304 0c-62 0-112 50-112 112 0 62 50 112 112 112 62 0 112-50 112-112 0-62-50-112-112-112z m-64 128l128 0-64 64z m0-32l128 0 0-32-128 0z"/>
<glyph unicode="&#57486;" d="M512 144c0 63-40 116-96 136l0 168-32 0 0 32 32 0 0 32-368 0c-1 0-11 0-23-6-12-5-26-20-25-42 0 0 0 0 0 0l0-432c0-32 32-32 32-32l337 0 0 0c79 1 143 65 143 144z m-466 304c-3 1-7 2-10 4-2 2-4 4-4 12 1 10 3 11 7 14 2 1 5 1 7 2 2 0 2 0 2 0l304 0 0-32-304 0c0 0 0 0-2 0z m18-416l0 384 320 0 0-129c-5 1-11 1-16 1-17 0-33-3-48-8l0 52-160 40 0-119c-5 2-10 3-16 3-27 0-48-22-48-48 0-27 21-48 48-48 26 0 48 21 48 48l0 123 96-24 0-43c-39-26-64-70-64-120 0-45 21-86 54-112l-214 0z m304 0c-62 0-112 50-112 112 0 62 50 112 112 112 62 0 112-50 112-112 0-62-50-112-112-112z m-16 32l32 0 0 96-32 0z m0 160l0-32 32 0 0 32z"/>
<glyph unicode="&#57487;" d="M512 144c0 63-40 116-96 136l0 168-32 0 0 32 32 0 0 32-368 0c-1 0-11 0-23-6-12-5-26-20-25-42 0 0 0 0 0 0l0-432c0-32 32-32 32-32l337 0 0 0c79 1 143 65 143 144z m-466 304c-3 1-7 2-10 4-2 2-4 4-4 12 1 10 3 11 7 14 2 1 5 1 7 2 2 0 2 0 2 0l304 0 0-32-304 0c0 0 0 0-2 0z m18-416l0 384 320 0 0-129c-5 1-11 1-16 1-17 0-33-3-48-8l0 52-160 40 0-119c-5 2-10 3-16 3-27 0-48-22-48-48 0-27 21-48 48-48 26 0 48 21 48 48l0 123 96-24 0-43c-39-26-64-70-64-120 0-45 21-86 54-112l-214 0z m304 0c-62 0-112 50-112 112 0 62 50 112 112 112 62 0 112-50 112-112 0-62-50-112-112-112z m16 160l32 0 0-96-32 0z m-64 0l32 0 0-96-32 0z"/>
<glyph unicode="&#57488;" d="M512 144c0 63-40 116-96 136l0 168-32 0 0 32 32 0 0 32-368 0c-1 0-11 0-23-6-12-5-26-20-25-42 0 0 0 0 0 0l0-432c0-32 32-32 32-32l337 0 0 0c79 1 143 65 143 144z m-466 304c-3 1-7 2-10 4-2 2-4 4-4 12 1 10 3 11 7 14 2 1 5 1 7 2 2 0 2 0 2 0l304 0 0-32-304 0c0 0 0 0-2 0z m18-416l0 384 320 0 0-129c-5 1-11 1-16 1-17 0-33-3-48-8l0 52-160 40 0-119c-5 2-10 3-16 3-27 0-48-22-48-48 0-27 21-48 48-48 26 0 48 21 48 48l0 123 96-24 0-43c-39-26-64-70-64-120 0-45 21-86 54-112l-214 0z m304 0c-62 0-112 50-112 112 0 62 50 112 112 112 62 0 112-50 112-112 0-62-50-112-112-112z m-80 128l160 0 0-32-160 0z"/>
<glyph unicode="&#57489;" d="M512 144c0 63-40 116-96 136l0 168-32 0 0 32 32 0 0 32-368 0c-1 0-11 0-23-6-12-5-26-20-25-42 0 0 0 0 0 0l0-432c0-32 32-32 32-32l337 0 0 0c79 1 143 65 143 144z m-466 304c-3 1-7 2-10 4-2 2-4 4-4 12 1 10 3 11 7 14 2 1 5 1 7 2 2 0 2 0 2 0l304 0 0-32-304 0c0 0 0 0-2 0z m18-416l0 384 320 0 0-129c-5 1-11 1-16 1-17 0-33-3-48-8l0 52-160 40 0-119c-5 2-10 3-16 3-27 0-48-22-48-48 0-27 21-48 48-48 26 0 48 21 48 48l0 123 96-24 0-43c-39-26-64-70-64-120 0-45 21-86 54-112l-214 0z m304 0c-62 0-112 50-112 112 0 62 50 112 112 112 62 0 112-50 112-112 0-62-50-112-112-112z m-16 176l0-128 64 64z"/>
<glyph unicode="&#57490;" d="M512 144c0 63-40 116-96 136l0 168-32 0 0 32 32 0 0 32-368 0c-1 0-11 0-23-6-12-5-26-20-25-42 0 0 0 0 0 0l0-432c0-32 32-32 32-32l337 0 0 0c79 1 143 65 143 144z m-466 304c-3 1-7 2-10 4-2 2-4 4-4 12 1 10 3 11 7 14 2 1 5 1 7 2 2 0 2 0 2 0l304 0 0-32-304 0c0 0 0 0-2 0z m18-416l0 384 320 0 0-129c-5 1-11 1-16 1-17 0-33-3-48-8l0 52-160 40 0-119c-5 2-10 3-16 3-27 0-48-22-48-48 0-27 21-48 48-48 26 0 48 21 48 48l0 123 96-24 0-43c-39-26-64-70-64-120 0-45 21-86 54-112l-214 0z m304 0c-62 0-112 50-112 112 0 62 50 112 112 112 62 0 112-50 112-112 0-62-50-112-112-112z m50 128c0 2 1 4 1 7-1 10-2 23-9 36-8 12-23 21-42 21-19 0-34-9-42-21-7-13-9-26-9-36 0-3 1-5 1-7l-14 0 0-80 128 0 0 80z m-69 7c0 7 2 15 4 19 3 3 5 6 15 6 10 0 12-3 14-6 3-4 5-12 5-19 0-3-1-5-1-7l-36 0c0 2-1 4-1 7z"/>
<glyph unicode="&#57491;" d="M512 144c0 63-40 116-96 136l0 168-32 0 0 32 32 0 0 32-368 0c-1 0-11 0-23-6-12-5-26-20-25-42 0 0 0 0 0 0l0-432c0-32 32-32 32-32l337 0 0 0c79 1 143 65 143 144z m-466 304c-3 1-7 2-10 4-2 2-4 4-4 12 1 10 3 11 7 14 2 1 5 1 7 2 2 0 2 0 2 0l304 0 0-32-304 0c0 0 0 0-2 0z m18-416l0 384 320 0 0-129c-5 1-11 1-16 1-17 0-33-3-48-8l0 52-160 40 0-119c-5 2-10 3-16 3-27 0-48-22-48-48 0-27 21-48 48-48 26 0 48 21 48 48l0 123 96-24 0-43c-39-26-64-70-64-120 0-45 21-86 54-112l-214 0z m304 0c-62 0-112 50-112 112 0 62 50 112 112 112 62 0 112-50 112-112 0-62-50-112-112-112z m80 96l0 32-27 0c-1 3-2 7-4 10l19 19-22 22-19-18c-3 2-7 3-11 4l0 27-32 0 0-27c-4-1-7-2-10-4l-19 18-22-22 18-19c-2-3-3-6-4-10l-27 0 0-32 27 0c1-4 2-8 4-11l-18-19 22-22 19 19c3-2 7-3 10-4l0-27 32 0 0 27c4 1 7 2 10 4l20-19 22 22-19 20c2 3 3 6 4 10z m-80-8c-13 0-24 11-24 24 0 13 11 24 24 24 13 0 24-11 24-24 0-13-11-24-24-24z"/>
<glyph unicode="&#57492;" d="M512 144c0 63-40 116-96 136l0 168-32 0 0 32 32 0 0 32-368 0c-1 0-11 0-23-6-12-5-26-20-25-42 0 0 0 0 0 0l0-432c0-32 32-32 32-32l337 0 0 0c79 1 143 65 143 144z m-466 304c-3 1-7 2-10 4-2 2-4 4-4 12 1 10 3 11 7 14 2 1 5 1 7 2 2 0 2 0 2 0l304 0 0-32-304 0c0 0 0 0-2 0z m18-416l0 384 320 0 0-129c-5 1-11 1-16 1-17 0-33-3-48-8l0 52-160 40 0-119c-5 2-10 3-16 3-27 0-48-22-48-48 0-27 21-48 48-48 26 0 48 21 48 48l0 123 96-24 0-43c-39-26-64-70-64-120 0-45 21-86 54-112l-214 0z m304 0c-62 0-112 50-112 112 0 62 50 112 112 112 62 0 112-50 112-112 0-62-50-112-112-112z m-48 160l96 0 0-96-96 0z"/>
<glyph unicode="&#57493;" d="M416 512l0-32-32 0 0-32 32 0 0-448-384 0c0 0-32 0-32 32l0 432c0 0 0 0 0 0-1 22 13 37 25 42 12 6 22 6 23 6l368 0m-368-64c0 0 0 0 0 0l304 0 0 32-304 0c0 0 0 0-2 0-2-1-5-1-7-2-4-3-6-4-7-14 0-8 2-10 4-12 3-2 7-3 10-4 1 0 2 0 2 0m16-416l320 0 0 384-320 0 0-384m256 288l-32 0-32 32-64 0-32-32-32 0c0 0-32 0-32-32 0-17 0-75 0-96 0-32 32-32 32-32 0 0 170 0 192 0 32 0 32 32 32 32 0 0 0 64 0 96 0 32-32 32-32 32z m-96-128c-27 0-48 21-48 48 0 26 21 48 48 48 26 0 48-22 48-48 0-27-22-48-48-48z"/>
<glyph unicode="&#57494;" d="M512 144c0 63-40 116-96 136l0 168-32 0 0 32 32 0 0 32-368 0c-1 0-11 0-23-6-12-5-26-20-25-42 0 0 0 0 0 0l0-432c0-32 32-32 32-32l337 0 0 0c79 1 143 65 143 144z m-466 304c-3 1-7 2-10 4-2 2-4 4-4 12 1 10 3 11 7 14 2 1 5 1 7 2 2 0 2 0 2 0l304 0 0-32-304 0c0 0 0 0-2 0z m18-416l0 384 320 0 0-129c-5 1-11 1-16 1-5 0-11 0-16-1 0 0 0 1 0 1 0 32-32 32-32 32l-32 0-32 32-64 0-32-32-32 0c0 0-32 0-32-32l0-96c0-32 32-32 32-32 0 0 48 0 97 0-1-5-1-11-1-16 0-45 21-86 54-112z m169 161c-3-1-6-1-9-1-27 0-48 21-48 48 0 26 21 48 48 48 23 0 42-16 47-38-17-15-30-35-38-57z m135-161c-62 0-112 50-112 112 0 62 50 112 112 112 62 0 112-50 112-112 0-62-50-112-112-112z m80 128l-64 0 0 64-32 0 0-64-64 0 0-32 64 0 0-64 32 0 0 64 64 0z"/>
<glyph unicode="&#57495;" d="M512 144c0 63-40 116-96 136l0 168-32 0 0 32 32 0 0 32-368 0c-1 0-11 0-23-6-12-5-26-20-25-42 0 0 0 0 0 0l0-432c0-32 32-32 32-32l337 0 0 0c79 1 143 65 143 144z m-466 304c-3 1-7 2-10 4-2 2-4 4-4 12 1 10 3 11 7 14 2 1 5 1 7 2 2 0 2 0 2 0l304 0 0-32-304 0c0 0 0 0-2 0z m18-416l0 384 320 0 0-129c-5 1-11 1-16 1-5 0-11 0-16-1 0 0 0 1 0 1 0 32-32 32-32 32l-32 0-32 32-64 0-32-32-32 0c0 0-32 0-32-32l0-96c0-32 32-32 32-32 0 0 48 0 97 0-1-5-1-11-1-16 0-45 21-86 54-112z m169 161c-3-1-6-1-9-1-27 0-48 21-48 48 0 26 21 48 48 48 23 0 42-16 47-38-17-15-30-35-38-57z m135-161c-62 0-112 50-112 112 0 62 50 112 112 112 62 0 112-50 112-112 0-62-50-112-112-112z m-16 32l32 0 0 96-32 0z m0 160l0-32 32 0 0 32z"/>
<glyph unicode="&#57496;" d="M512 144c0 63-40 116-96 136l0 168-32 0 0 32 32 0 0 32-368 0c-1 0-11 0-23-6-12-5-26-20-25-42 0 0 0 0 0 0l0-432c0-32 32-32 32-32l337 0 0 0c79 1 143 65 143 144z m-466 304c-3 1-7 2-10 4-2 2-4 4-4 12 1 10 3 11 7 14 2 1 5 1 7 2 2 0 2 0 2 0l304 0 0-32-304 0c0 0 0 0-2 0z m18-416l0 384 320 0 0-129c-5 1-11 1-16 1-5 0-11 0-16-1 0 0 0 1 0 1 0 32-32 32-32 32l-32 0-32 32-64 0-32-32-32 0c0 0-32 0-32-32l0-96c0-32 32-32 32-32 0 0 48 0 97 0-1-5-1-11-1-16 0-45 21-86 54-112z m169 161c-3-1-6-1-9-1-27 0-48 21-48 48 0 26 21 48 48 48 23 0 42-16 47-38-17-15-30-35-38-57z m135-161c-62 0-112 50-112 112 0 62 50 112 112 112 62 0 112-50 112-112 0-62-50-112-112-112z m16 160l32 0 0-96-32 0z m-64 0l32 0 0-96-32 0z"/>
<glyph unicode="&#57497;" d="M288 160l160 0 0-32-160 0z m224-16c0 63-40 116-96 136l0 168-32 0 0 32 32 0 0 32-368 0c-1 0-11 0-23-6-12-5-26-20-25-42 0 0 0 0 0 0l0-432c0-32 32-32 32-32l337 0 0 0c79 1 143 65 143 144z m-466 304c-3 1-7 2-10 4-2 2-4 4-4 12 1 10 3 11 7 14 2 1 5 1 7 2 2 0 2 0 2 0l304 0 0-32-304 0c0 0 0 0-2 0z m18-416l0 384 320 0 0-129c-5 1-11 1-16 1-5 0-11 0-16-1 0 0 0 1 0 1 0 32-32 32-32 32l-32 0-32 32-64 0-32-32-32 0c0 0-32 0-32-32l0-96c0-32 32-32 32-32 0 0 48 0 97 0-1-5-1-11-1-16 0-45 21-86 54-112z m169 161c-3-1-6-1-9-1-27 0-48 21-48 48 0 26 21 48 48 48 23 0 42-16 47-38-17-15-30-35-38-57z m135-161c-62 0-112 50-112 112 0 62 50 112 112 112 62 0 112-50 112-112 0-62-50-112-112-112z"/>
<glyph unicode="&#57498;" d="M512 144c0 63-40 116-96 136l0 168-32 0 0 32 32 0 0 32-368 0c-1 0-11 0-23-6-12-5-26-20-25-42 0 0 0 0 0 0l0-432c0-32 32-32 32-32l337 0 0 0c79 1 143 65 143 144z m-466 304c-3 1-7 2-10 4-2 2-4 4-4 12 1 10 3 11 7 14 2 1 5 1 7 2 2 0 2 0 2 0l304 0 0-32-304 0c0 0 0 0-2 0z m18-416l0 384 320 0 0-129c-5 1-11 1-16 1-5 0-11 0-16-1 0 0 0 1 0 1 0 32-32 32-32 32l-32 0-32 32-64 0-32-32-32 0c0 0-32 0-32-32l0-96c0-32 32-32 32-32 0 0 48 0 97 0-1-5-1-11-1-16 0-45 21-86 54-112z m169 161c-3-1-6-1-9-1-27 0-48 21-48 48 0 26 21 48 48 48 23 0 42-16 47-38-17-15-30-35-38-57z m135-161c-62 0-112 50-112 112 0 62 50 112 112 112 62 0 112-50 112-112 0-62-50-112-112-112z m-16 176l0-128 64 64z"/>
<glyph unicode="&#57499;" d="M512 144c0 63-40 116-96 136l0 168-32 0 0 32 32 0 0 32-368 0c-1 0-11 0-23-6-12-5-26-20-25-42 0 0 0 0 0 0l0-432c0-32 32-32 32-32l337 0 0 0c79 1 143 65 143 144z m-466 304c-3 1-7 2-10 4-2 2-4 4-4 12 1 10 3 11 7 14 2 1 5 1 7 2 2 0 2 0 2 0l304 0 0-32-304 0c0 0 0 0-2 0z m18-416l0 384 320 0 0-129c-5 1-11 1-16 1-5 0-11 0-16-1 0 0 0 1 0 1 0 32-32 32-32 32l-32 0-32 32-64 0-32-32-32 0c0 0-32 0-32-32l0-96c0-32 32-32 32-32 0 0 48 0 97 0-1-5-1-11-1-16 0-45 21-86 54-112z m169 161c-3-1-6-1-9-1-27 0-48 21-48 48 0 26 21 48 48 48 23 0 42-16 47-38-17-15-30-35-38-57z m135-161c-62 0-112 50-112 112 0 62 50 112 112 112 62 0 112-50 112-112 0-62-50-112-112-112z m50 128c0 2 1 4 1 7-1 10-2 23-9 36-8 12-23 21-42 21-19 0-34-9-42-21-7-13-9-26-9-36 0-3 1-5 1-7l-14 0 0-80 128 0 0 80z m-69 7c0 7 2 15 4 19 3 3 5 6 15 6 10 0 12-3 14-6 3-4 5-12 5-19 0-3-1-5-1-7l-36 0c0 2-1 4-1 7z"/>
<glyph unicode="&#57500;" d="M512 144c0 63-40 116-96 136l0 168-32 0 0 32 32 0 0 32-368 0c-1 0-11 0-23-6-12-5-26-20-25-42 0 0 0 0 0 0l0-432c0-32 32-32 32-32l337 0 0 0c79 1 143 65 143 144z m-466 304c-3 1-7 2-10 4-2 2-4 4-4 12 1 10 3 11 7 14 2 1 5 1 7 2 2 0 2 0 2 0l304 0 0-32-304 0c0 0 0 0-2 0z m18-416l0 384 320 0 0-129c-5 1-11 1-16 1-5 0-11 0-16-1 0 0 0 1 0 1 0 32-32 32-32 32l-32 0-32 32-64 0-32-32-32 0c0 0-32 0-32-32l0-96c0-32 32-32 32-32 0 0 48 0 97 0-1-5-1-11-1-16 0-45 21-86 54-112z m169 161c-3-1-6-1-9-1-27 0-48 21-48 48 0 26 21 48 48 48 23 0 42-16 47-38-17-15-30-35-38-57z m135-161c-62 0-112 50-112 112 0 62 50 112 112 112 62 0 112-50 112-112 0-62-50-112-112-112z m80 96l0 32-27 0c-1 3-2 7-4 10l19 19-22 22-19-18c-3 2-7 3-11 4l0 27-32 0 0-27c-4-1-7-2-10-4l-19 18-22-22 18-19c-2-3-3-6-4-10l-27 0 0-32 27 0c1-4 2-8 4-11l-18-19 22-22 19 19c3-2 7-3 10-4l0-27 32 0 0 27c4 1 7 2 10 4l20-19 22 22-19 20c2 3 3 6 4 10z m-80-8c-13 0-24 11-24 24 0 13 11 24 24 24 13 0 24-11 24-24 0-13-11-24-24-24z"/>
<glyph unicode="&#57501;" d="M512 144c0 63-40 116-96 136l0 168-32 0 0 32 32 0 0 32-368 0c-1 0-11 0-23-6-12-5-26-20-25-42 0 0 0 0 0 0l0-432c0-32 32-32 32-32l337 0 0 0c79 1 143 65 143 144z m-466 304c-3 1-7 2-10 4-2 2-4 4-4 12 1 10 3 11 7 14 2 1 5 1 7 2 2 0 2 0 2 0l304 0 0-32-304 0c0 0 0 0-2 0z m18-416l0 384 320 0 0-129c-5 1-11 1-16 1-5 0-11 0-16-1 0 0 0 1 0 1 0 32-32 32-32 32l-32 0-32 32-64 0-32-32-32 0c0 0-32 0-32-32l0-96c0-32 32-32 32-32 0 0 48 0 97 0-1-5-1-11-1-16 0-45 21-86 54-112z m169 161c-3-1-6-1-9-1-27 0-48 21-48 48 0 26 21 48 48 48 23 0 42-16 47-38-17-15-30-35-38-57z m135-161c-62 0-112 50-112 112 0 62 50 112 112 112 62 0 112-50 112-112 0-62-50-112-112-112z m-48 160l96 0 0-96-96 0z"/>
<glyph unicode="&#57502;" d="M416 512l0-32-32 0 0-32 32 0 0-448-384 0c0 0-32 0-32 32l0 432c0 0 0 0 0 0-1 22 13 37 25 42 12 6 22 6 23 6l368 0m-368-64c0 0 0 0 0 0l304 0 0 32-304 0c0 0 0 0-2 0-2-1-5-1-7-2-4-3-6-4-7-14 0-8 2-10 4-12 3-2 7-3 10-4 1 0 2 0 2 0m16-416l320 0 0 384-320 0 0-384"/>
<glyph unicode="&#57503;" d="M512 144c0 63-40 116-96 136l0 168-32 0 0 32 32 0 0 32-368 0c-1 0-11 0-23-6-12-5-26-20-25-42 0 0 0 0 0 0l0-432c0-32 32-32 32-32l337 0 0 0c79 1 143 65 143 144z m-466 304c-3 1-7 2-10 4-2 2-4 4-4 12 1 10 3 11 7 14 2 1 5 1 7 2 2 0 2 0 2 0l304 0 0-32-304 0c0 0 0 0-2 0z m18-416l0 384 320 0 0-129c-5 1-11 1-16 1-80 0-144-64-144-144 0-45 21-86 54-112z m304 0c-62 0-112 50-112 112 0 62 50 112 112 112 62 0 112-50 112-112 0-62-50-112-112-112z m80 128l-64 0 0 64-32 0 0-64-64 0 0-32 64 0 0-64 32 0 0 64 64 0z"/>
<glyph unicode="&#57504;" d="M512 144c0 63-40 116-96 136l0 168-32 0 0 32 32 0 0 32-368 0c-1 0-11 0-23-6-12-5-26-20-25-42 0 0 0 0 0 0l0-432c0-32 32-32 32-32l337 0 0 0c79 1 143 65 143 144z m-466 304c-3 1-7 2-10 4-2 2-4 4-4 12 1 10 3 11 7 14 2 1 5 1 7 2 2 0 2 0 2 0l304 0 0-32-304 0c0 0 0 0-2 0z m18-416l0 384 320 0 0-129c-5 1-11 1-16 1-80 0-144-64-144-144 0-45 21-86 54-112l-214 0z m304 0c-62 0-112 50-112 112 0 62 50 112 112 112 62 0 112-50 112-112 0-62-50-112-112-112z m64 128l-128 0 64-64z"/>
<glyph unicode="&#57505;" d="M512 144c0 63-40 116-96 136l0 168-32 0 0 32 32 0 0 32-368 0c-1 0-11 0-23-6-12-5-26-20-25-42 0 0 0 0 0 0l0-432c0-32 32-32 32-32l337 0 0 0c79 1 143 65 143 144z m-466 304c-3 1-7 2-10 4-2 2-4 4-4 12 1 10 3 11 7 14 2 1 5 1 7 2 2 0 2 0 2 0l304 0 0-32-304 0c0 0 0 0-2 0z m18-416l0 384 320 0 0-129c-5 1-11 1-16 1-80 0-144-64-144-144 0-45 21-86 54-112l-214 0z m304 0c-62 0-112 50-112 112 0 62 50 112 112 112 62 0 112-50 112-112 0-62-50-112-112-112z m-16 32l32 0 0 96-32 0z m0 160l0-32 32 0 0 32z"/>
<glyph unicode="&#57506;" d="M512 144c0 63-40 116-96 136l0 168-32 0 0 32 32 0 0 32-368 0c-1 0-11 0-23-6-12-5-26-20-25-42 0 0 0 0 0 0l0-432c0-32 32-32 32-32l337 0 0 0c79 1 143 65 143 144z m-466 304c-3 1-7 2-10 4-2 2-4 4-4 12 1 10 3 11 7 14 2 1 5 1 7 2 2 0 2 0 2 0l304 0 0-32-304 0c0 0 0 0-2 0z m18-416l0 384 320 0 0-129c-5 1-11 1-16 1-80 0-144-64-144-144 0-45 21-86 54-112z m304 0c-62 0-112 50-112 112 0 62 50 112 112 112 62 0 112-50 112-112 0-62-50-112-112-112z m-80 128l160 0 0-32-160 0z"/>
<glyph unicode="&#57507;" d="M512 144c0 63-40 116-96 136l0 168-32 0 0 32 32 0 0 32-368 0c-1 0-11 0-23-6-12-5-26-20-25-42 0 0 0 0 0 0l0-432c0-32 32-32 32-32l337 0 0 0c79 1 143 65 143 144z m-466 304c-3 1-7 2-10 4-2 2-4 4-4 12 1 10 3 11 7 14 2 1 5 1 7 2 2 0 2 0 2 0l304 0 0-32-304 0c0 0 0 0-2 0z m18-416l0 384 320 0 0-129c-5 1-11 1-16 1-80 0-144-64-144-144 0-45 21-86 54-112l-214 0z m304 0c-62 0-112 50-112 112 0 62 50 112 112 112 62 0 112-50 112-112 0-62-50-112-112-112z m-16 176l0-128 64 64z"/>
<glyph unicode="&#57508;" d="M512 144c0 63-40 116-96 136l0 168-32 0 0 32 32 0 0 32-368 0c-1 0-11 0-23-6-12-5-26-20-25-42 0 0 0 0 0 0l0-432c0-32 32-32 32-32l337 0 0 0c79 1 143 65 143 144z m-466 304c-3 1-7 2-10 4-2 2-4 4-4 12 1 10 3 11 7 14 2 1 5 1 7 2 2 0 2 0 2 0l304 0 0-32-304 0c0 0 0 0-2 0z m18-416l0 384 320 0 0-129c-5 1-11 1-16 1-80 0-144-64-144-144 0-45 21-86 54-112z m304 0c-62 0-112 50-112 112 0 62 50 112 112 112 62 0 112-50 112-112 0-62-50-112-112-112z m50 128c0 2 1 4 1 7-1 10-2 23-9 36-8 12-23 21-42 21-19 0-34-9-42-21-7-13-9-26-9-36 0-3 1-5 1-7l-14 0 0-80 128 0 0 80z m-69 7c0 7 2 15 4 19 3 3 5 6 15 6 10 0 12-3 14-6 3-4 5-12 5-19 0-3-1-5-1-7l-36 0c0 2-1 4-1 7z"/>
<glyph unicode="&#57509;" d="M512 144c0 63-40 116-96 136l0 168-32 0 0 32 32 0 0 32-368 0c-1 0-11 0-23-6-12-5-26-20-25-42 0 0 0 0 0 0l0-432c0-32 32-32 32-32l337 0 0 0c79 1 143 65 143 144z m-466 304c-3 1-7 2-10 4-2 2-4 4-4 12 1 10 3 11 7 14 2 1 5 1 7 2 2 0 2 0 2 0l304 0 0-32-304 0c0 0 0 0-2 0z m18-416l0 384 320 0 0-129c-5 1-11 1-16 1-80 0-144-64-144-144 0-45 21-86 54-112l-214 0z m304 0c-62 0-112 50-112 112 0 62 50 112 112 112 62 0 112-50 112-112 0-62-50-112-112-112z m-64 96l128 0-64 64z"/>
<glyph unicode="&#57510;" d="M416 512l0-32-32 0 0-32 32 0 0-448-384 0c0 0-32 0-32 32l0 432c0 0 0 0 0 0-1 22 13 37 25 42 12 6 22 6 23 6l368 0m-368-64c0 0 0 0 0 0l304 0 0 32-304 0c0 0 0 0-2 0-2-1-5-1-7-2-4-3-6-4-7-14 0-8 2-10 4-12 3-2 7-3 10-4 1 0 2 0 2 0m16-416l320 0 0 384-320 0 0-384m32 128l0 32 192 0 0-32z m0 128l0 32 256 0 0-32z m0-64l0 32 256 0 0-32z"/>
<glyph unicode="&#57511;" d="M512 144c0 63-40 116-96 136l0 168-32 0 0 32 32 0 0 32-368 0c-1 0-11 0-23-6-12-5-26-20-25-42 0 0 0 0 0 0l0-432c0-32 32-32 32-32l337 0 0 0c79 1 143 65 143 144z m-466 304c-3 1-7 2-10 4-2 2-4 4-4 12 1 10 3 11 7 14 2 1 5 1 7 2 2 0 2 0 2 0l304 0 0-32-304 0c0 0 0 0-2 0z m18-416l0 384 320 0 0-129c-5 1-11 1-16 1-34 0-66-12-90-32l-182 0 0-32 152 0c-6-10-12-21-16-32l-136 0 0-32 129 0c-1-5-1-11-1-16 0-45 21-86 54-112z m304 0c-62 0-112 50-112 112 0 62 50 112 112 112 62 0 112-50 112-112 0-62-50-112-112-112z m-16 288l-256 0 0-32 256 0z m96-160l-64 0 0 64-32 0 0-64-64 0 0-32 64 0 0-64 32 0 0 64 64 0z"/>
<glyph unicode="&#57512;" d="M512 144c0 63-40 116-96 136l0 168-32 0 0 32 32 0 0 32-368 0c-1 0-11 0-23-6-12-5-26-20-25-42 0 0 0 0 0 0l0-432c0-32 32-32 32-32l337 0 0 0c79 1 143 65 143 144z m-466 304c-3 1-7 2-10 4-2 2-4 4-4 12 1 10 3 11 7 14 2 1 5 1 7 2 2 0 2 0 2 0l304 0 0-32-304 0c0 0 0 0-2 0z m18-416l0 384 320 0 0-129c-5 1-11 1-16 1-34 0-66-12-90-32l-182 0 0-32 152 0c-6-10-12-21-16-32l-136 0 0-32 129 0c-1-5-1-11-1-16 0-45 21-86 54-112z m304 0c-62 0-112 50-112 112 0 62 50 112 112 112 62 0 112-50 112-112 0-62-50-112-112-112z m-16 288l-256 0 0-32 256 0z m80-160l-128 0 64-64z"/>
<glyph unicode="&#57513;" d="M512 144c0 63-40 116-96 136l0 168-32 0 0 32 32 0 0 32-368 0c-1 0-11 0-23-6-12-5-26-20-25-42 0 0 0 0 0 0l0-432c0-32 32-32 32-32l337 0 0 0c79 1 143 65 143 144z m-466 304c-3 1-7 2-10 4-2 2-4 4-4 12 1 10 3 11 7 14 2 1 5 1 7 2 2 0 2 0 2 0l304 0 0-32-304 0c0 0 0 0-2 0z m18-416l0 384 320 0 0-129c-5 1-11 1-16 1-34 0-66-12-90-32l-182 0 0-32 152 0c-6-10-12-21-16-32l-136 0 0-32 129 0c-1-5-1-11-1-16 0-45 21-86 54-112z m304 0c-62 0-112 50-112 112 0 62 50 112 112 112 62 0 112-50 112-112 0-62-50-112-112-112z m-16 288l-256 0 0-32 256 0z m0-256l32 0 0 96-32 0z m0 160l0-32 32 0 0 32z"/>
<glyph unicode="&#57514;" d="M512 144c0 63-40 116-96 136l0 168-32 0 0 32 32 0 0 32-368 0c-1 0-11 0-23-6-12-5-26-20-25-42 0 0 0 0 0 0l0-432c0-32 32-32 32-32l337 0 0 0c79 1 143 65 143 144z m-466 304c-3 1-7 2-10 4-2 2-4 4-4 12 1 10 3 11 7 14 2 1 5 1 7 2 2 0 2 0 2 0l304 0 0-32-304 0c0 0 0 0-2 0z m18-416l0 384 320 0 0-129c-5 1-11 1-16 1-34 0-66-12-90-32l-182 0 0-32 152 0c-6-10-12-21-16-32l-136 0 0-32 129 0c-1-5-1-11-1-16 0-45 21-86 54-112z m304 0c-62 0-112 50-112 112 0 62 50 112 112 112 62 0 112-50 112-112 0-62-50-112-112-112z m-16 288l-256 0 0-32 256 0z m-64-160l160 0 0-32-160 0z"/>
<glyph unicode="&#57515;" d="M512 144c0 63-40 116-96 136l0 168-32 0 0 32 32 0 0 32-368 0c-1 0-11 0-23-6-12-5-26-20-25-42 0 0 0 0 0 0l0-432c0-32 32-32 32-32l337 0 0 0c79 1 143 65 143 144z m-466 304c-3 1-7 2-10 4-2 2-4 4-4 12 1 10 3 11 7 14 2 1 5 1 7 2 2 0 2 0 2 0l304 0 0-32-304 0c0 0 0 0-2 0z m18-416l0 384 320 0 0-129c-5 1-11 1-16 1-34 0-66-12-90-32l-182 0 0-32 152 0c-6-10-12-21-16-32l-136 0 0-32 129 0c-1-5-1-11-1-16 0-45 21-86 54-112z m304 0c-62 0-112 50-112 112 0 62 50 112 112 112 62 0 112-50 112-112 0-62-50-112-112-112z m-16 288l-256 0 0-32 256 0z m0-112l0-128 64 64z"/>
<glyph unicode="&#57516;" d="M512 144c0 63-40 116-96 136l0 168-32 0 0 32 32 0 0 32-368 0c-1 0-11 0-23-6-12-5-26-20-25-42 0 0 0 0 0 0l0-432c0-32 32-32 32-32l337 0 0 0c79 1 143 65 143 144z m-466 304c-3 1-7 2-10 4-2 2-4 4-4 12 1 10 3 11 7 14 2 1 5 1 7 2 2 0 2 0 2 0l304 0 0-32-304 0c0 0 0 0-2 0z m18-416l0 384 320 0 0-129c-5 1-11 1-16 1-34 0-66-12-90-32l-182 0 0-32 152 0c-6-10-12-21-16-32l-136 0 0-32 129 0c-1-5-1-11-1-16 0-45 21-86 54-112z m304 0c-62 0-112 50-112 112 0 62 50 112 112 112 62 0 112-50 112-112 0-62-50-112-112-112z m-16 288l-256 0 0-32 256 0z m66-160c0 2 1 4 1 7-1 10-2 23-9 36-8 12-23 21-42 21-19 0-34-9-42-21-7-13-9-26-9-36 0-3 1-5 1-7l-14 0 0-80 128 0 0 80z m-69 7c0 7 2 15 4 19 3 3 5 6 15 6 10 0 12-3 14-6 3-4 5-12 5-19 0-3-1-5-1-7l-36 0c0 2-1 4-1 7z"/>
<glyph unicode="&#57517;" d="M512 144c0 63-40 116-96 136l0 168-32 0 0 32 32 0 0 32-368 0c-1 0-11 0-23-6-12-5-26-20-25-42 0 0 0 0 0 0l0-432c0-32 32-32 32-32l337 0 0 0c79 1 143 65 143 144z m-466 304c-3 1-7 2-10 4-2 2-4 4-4 12 1 10 3 11 7 14 2 1 5 1 7 2 2 0 2 0 2 0l304 0 0-32-304 0c0 0 0 0-2 0z m18-416l0 384 320 0 0-129c-5 1-11 1-16 1-34 0-66-12-90-32l-182 0 0-32 152 0c-6-10-12-21-16-32l-136 0 0-32 129 0c-1-5-1-11-1-16 0-45 21-86 54-112z m304 0c-62 0-112 50-112 112 0 62 50 112 112 112 62 0 112-50 112-112 0-62-50-112-112-112z m-16 288l-256 0 0-32 256 0z m96-192l0 32-27 0c-1 3-2 7-4 10l19 19-22 22-19-18c-3 2-7 3-11 4l0 27-32 0 0-27c-4-1-7-2-10-4l-19 18-22-22 18-19c-2-3-3-6-4-10l-27 0 0-32 27 0c1-4 2-8 4-11l-18-19 22-22 19 19c3-2 7-3 10-4l0-27 32 0 0 27c4 1 7 2 10 4l20-19 22 22-19 20c2 3 3 6 4 10z m-80-8c-13 0-24 11-24 24 0 13 11 24 24 24 13 0 24-11 24-24 0-13-11-24-24-24z"/>
<glyph unicode="&#57518;" d="M512 144c0 63-40 116-96 136l0 168-32 0 0 32 32 0 0 32-368 0c-1 0-11 0-23-6-12-5-26-20-25-42 0 0 0 0 0 0l0-432c0-32 32-32 32-32l337 0 0 0c79 1 143 65 143 144z m-466 304c-3 1-7 2-10 4-2 2-4 4-4 12 1 10 3 11 7 14 2 1 5 1 7 2 2 0 2 0 2 0l304 0 0-32-304 0c0 0 0 0-2 0z m18-416l0 384 320 0 0-129c-5 1-11 1-16 1-34 0-66-12-90-32l-182 0 0-32 152 0c-6-10-12-21-16-32l-136 0 0-32 129 0c-1-5-1-11-1-16 0-45 21-86 54-112z m304 0c-62 0-112 50-112 112 0 62 50 112 112 112 62 0 112-50 112-112 0-62-50-112-112-112z m-16 288l-256 0 0-32 256 0z m-32-128l96 0 0-96-96 0z"/>
<glyph unicode="&#57519;" d="M512 144c0 63-40 116-96 136l0 168-32 0 0 32 32 0 0 32-368 0c-1 0-11 0-23-6-12-5-26-20-25-42 0 0 0 0 0 0l0-432c0-32 32-32 32-32l337 0 0 0c79 1 143 65 143 144z m-466 304c-3 1-7 2-10 4-2 2-4 4-4 12 1 10 3 11 7 14 2 1 5 1 7 2 2 0 2 0 2 0l304 0 0-32-304 0c0 0 0 0-2 0z m18-416l0 384 320 0 0-129c-5 1-11 1-16 1-34 0-66-12-90-32l-182 0 0-32 152 0c-6-10-12-21-16-32l-136 0 0-32 129 0c-1-5-1-11-1-16 0-45 21-86 54-112z m304 0c-62 0-112 50-112 112 0 62 50 112 112 112 62 0 112-50 112-112 0-62-50-112-112-112z m-16 288l-256 0 0-32 256 0z m-48-192l128 0-64 64z"/>
<glyph unicode="&#57520;" d="M320 480l0 32-272 0c-1 0-11 0-23-6-12-5-26-20-25-42 0 0 0 0 0 0l0-336c0-32 32-32 32-32l128 0 0-96 48 32 48-32 0 96 64 0 0 352-32 0 0 32z m-32-352l-224 0 0 288 224 0z m-32 320l-208 0c0 0-1 0-2 0-3 1-7 2-10 4-2 2-4 4-4 12 1 10 3 11 7 14 2 1 5 1 7 2 1 0 2 0 2 0l208 0z"/>
<glyph unicode="&#57521;" d="M368 288c-17 0-33-3-48-8l0 168-32 0 0 32 32 0 0 32-272 0c-1 0-11 0-23-6-12-5-26-20-25-42 0 0 0 0 0 0l0-336c0-32 32-32 32-32l128 0 0-96 48 32 48-32 0 54c26-33 67-54 112-54 80 0 144 64 144 144 0 80-64 144-144 144z m-322 160c-3 1-7 2-10 4-2 2-4 4-4 12 1 10 3 11 7 14 2 1 5 1 7 2 2 0 2 0 2 0l208 0 0-32-208 0c0 0 0 0-2 0z m18-320l0 288 224 0 0-152c-39-26-64-70-64-120 0-5 0-11 1-16z m304-96c-62 0-112 50-112 112 0 62 50 112 112 112 62 0 112-50 112-112 0-62-50-112-112-112z m80 96l0 32-27 0c-1 3-2 7-4 10l19 19-22 22-19-18c-3 2-7 3-11 4l0 27-32 0 0-27c-4-1-7-2-10-4l-19 18-22-22 18-19c-2-3-3-6-4-10l-27 0 0-32 27 0c1-4 2-8 4-11l-18-19 22-22 19 19c3-2 7-3 10-4l0-27 32 0 0 27c4 1 7 2 10 4l20-19 22 22-19 20c2 3 3 6 4 10z m-80-8c-13 0-24 11-24 24 0 13 11 24 24 24 13 0 24-11 24-24 0-13-11-24-24-24z"/>
<glyph unicode="&#57522;" d="M448 352l-96 0 0 32c0 19-13 48-48 48l-96 0c-35 0-48-29-48-48l0-32-96 0c0 0-32 0-32-32 0-25 0-186 0-256 0-32 32-32 32-32l384 0c0 0 32 0 32 32 0 70 0 231 0 256 0 32-32 32-32 32z m-256 32c0 7 3 16 16 16l96 0c13 0 16-9 16-16l0-32-128 0z"/>
<glyph unicode="&#57523;" d="M288 288l0 64-64 0 0-64-64 0 0-64 64 0 0-64 64 0 0 64 64 0 0 64z m-32 128c-88 0-160-72-160-160 0-88 72-160 160-160 88 0 160 72 160 160 0 88-72 160-160 160z m0-288c-71 0-128 57-128 128 0 71 57 128 128 128 71 0 128-57 128-128 0-71-57-128-128-128z m16 384l-32 0 0-64 32 0z m-32-512l32 0 0 64-32 0z m149 101l48-48 22 22-48 48z m-266 310l-48 48-22-22 48-48z m336 26l-22 22-48-48 22-22z m-406-362l22-22 48 48-22 22z m11 197l-64 0 0-32 64 0z m384 0l0-32 64 0 0 32z"/>
<glyph unicode="&#57524;" d="M256 416c-88 0-160-72-160-160 0-88 72-160 160-160 88 0 160 72 160 160 0 88-72 160-160 160z m0-288c-71 0-128 57-128 128 0 71 57 128 128 128 71 0 128-57 128-128 0-71-57-128-128-128z m-96 160l0-64 192 0 0 64z m112 224l-32 0 0-64 32 0z m-32-512l32 0 0 64-32 0z m149 101l48-48 22 22-48 48z m-266 310l-48 48-22-22 48-48z m336 26l-22 22-48-48 22-22z m-406-362l22-22 48 48-22 22z m11 197l-64 0 0-32 64 0z m384 0l0-32 64 0 0 32z"/>
<glyph unicode="&#57525;" d="M288 192l0 32 96 0 0-32z m0 64l0 32 160 0 0-32z m0 64l0 32 160 0 0-32z m-224 32l160 0 0-160-160 0z m-64 160l0-448 512 0 0 448z m352-32l0-32-192 0 0 32z m-224 0l0-32-32 0 0 32z m-96 0l32 0 0-32-32 0z m448-384l-448 0 0 320 448 0z m0 352l-64 0 0 32 64 0z"/>
</font>
</defs>
</svg>
